Jump to content
PirateClub.hu

Search the Community

Showing results for tags 'data free'.



More search options

  • Search By Tags

    Type tags separated by commas.
  • Search By Author

Content Type


Forums

  • Info
    • PirateClub Hírek
    • Háttérinformációk
  • Letöltési fórumok
    • Filmek (DL)
    • Sorozatok (DL)
    • Zenék (DL)
    • Digitális Könyvek, Tutoriálok (DL)
    • Programok (DL)
    • Játékok (DL)
    • Szkriptek, Sablonok, Betűtípusok, Háttérképek (DL)
    • XxX (DL)
    • Kérések
  • Érdekességek a nagyvilágból
    • Tudományos hírek
    • Technikai és IT hírek
    • Sport hírek
  • Általános fórumok
    • Weboldalak
    • Filmek
    • Sorozatok
    • Szavazások
    • Hírek
    • Csevegés
    • Játékok
    • Zene
    • Sport
    • Erotika
    • Gasztronómia
    • Tudomány
    • Humor
    • Gumiszoba
    • Segítség
  • Számítástechnikai, technikai fórumok
    • Programozás
    • Grafika, Photoshop
    • Zeneszerkesztés
    • Filmszerkesztés
    • Operációs Rendszerek
    • Mobiltelefonok
    • Totalcar
    • Hardver

Find results in...

Find results that contain...


Date Created

  • Start

    End


Last Updated

  • Start

    End


Filter by number of...

Joined

  • Start

    End


Group


AIM


MSN


Website URL


ICQ


Yahoo


Jabber


Skype


Lakhely


Op.rendszer


Érdeklődés

Found 1,177 results

  1. Monster Hunter – Szörnybirodalom HD1080p Feliratos, amerikai-kanadai kaland fantasy Rendező: Paul W.S. Anderson Főszereplők: Diego Boneta Meagan Good Josh Helman Tony Jaa Milla Jovovich Ron Perlman T.I. Artemis hadnagy (Milla Jovovich) és emberei egy távoli bolygóra kerülnek – és az új világ régi lakói nem fogadják őket szeretettel. A hatalmas, elképesztő erejű, meghökkentő harci technikákkal felszerelt szörnyek kérdés nélkül, azonnal végezni akarnak látszólag védtelen ellenfeleikkel. Ám az emberek kis csapata nem adja fel könnyen. Életben akarnak maradni, bármi áron. És minél többen halnak meg közülük, annál elszántabban harcolnak tovább a kiismerhetetlen terepen. Egyetlen céljuk maradt: a túlélés. A Kaptár-filmek rendezője és főszereplője ismét egy videójáték alapján készített filmet. Az elsöprő sikerű, világszerte több mint 55 millió példányban eladott játék filmváltozatában a szörnyek legalább olyan fontos szereplők, mint az ellenük induló kalandorok. Format : Matroska at 14,1 Mb/s Length : 10,1 GiB for 1 óra 43 perc 8 mp 192emp Video #0 : AVC at 12,5 Mb/s Aspect : 1920 x 804 (2.388) at 23.976 fps Audio #0 : DTS at 1 509 kb/s Infos : 6 csatorna, 48,0 kHz Language : en Text #0 : UTF-8 Language : hu [Hidden Content]
  2. R.I.P.D. – Szellemzsaruk (rövidítve: Rest in Peace Department) HD1080p Feliratos, amerikai sci-fi akció komédia főszereplők Jeff Bridges, Ryan Reynolds, Kevin Bacon, Mary-Louise Parker, James Hong, Marisa Miller Robert Knepper Roy (Jeff Bridges) és Nick (Ryan Reynold) két élőhalott zsaru, akiket a túlvilági Nyugodj Békében Osztag, azaz a R.I.P.D. küldött, hogy megvédjék világunkat azon pusztító lények egyre szaporodó hadától, akik nem hajlandók békében távozni az árnyékvilágba. Format : Matroska at 2 726 kb/s Length : 1,83 GiB for 1 óra 35 perc 55 mp 562emp Video #0 : AVC at 2 500 kb/s Aspect : 1920 x 816 (2.353) at 23.976 fps Audio #0 : AAC at 224 kb/s Infos : 6 csatorna, 48,0 kHz Language : en Text #0 : UTF-8 Language : hu [Hidden Content]
  3. Recoil

    EBM & WAVE Classic´s - 03

    EBM & WAVE Classic´s - 03 110MB, mp3, 123 perc, 128 KB/s [Hidden Content]
  4. A kijelölt túlélő (Designated Survivor) 2016.720p.10bit.BluRay.x265 1.T évad szinkronizált, amerikai drámasorozat, 45 perc, 240 Mb/rész Tom Kirkmant, a kormányzat egyik alacsonyabb rangú tagját az Egyesült Államok elnökévé nevezik ki az USA Capitoliuma elleni támadást követően. Kirkmannek garantálnia kell az ország és családja biztonságát, miközben a támadás elkövetői utáni hajszát is irányítja. RENDEZŐ: Chris Grismer, Fred Toye FORGATÓKÖNYVÍRÓ: David Guggenheim, Pierluigi Cothran, Patrick Cunnane ZENE: Sean Callery, Robert Lydecker SZEREPLŐK: Kiefer Sutherland, Michael J. Fox, Virginia Madsen, Natascha McElhone, Rob Morrow, Maggie Q, Bruce Davison 1. évad [Hidden Content] [Hidden Content] [Hidden Content] [Hidden Content] [Hidden Content] [Hidden Content] [Hidden Content] [Hidden Content] [Hidden Content] [Hidden Content] [Hidden Content] [Hidden Content] [Hidden Content] [Hidden Content] [Hidden Content] [Hidden Content] [Hidden Content] [Hidden Content] [Hidden Content] [Hidden Content] [Hidden Content] [Hidden Content] [Hidden Content] [Hidden Content] [Hidden Content] 2. évad [Hidden Content] [Hidden Content] [Hidden Content] [Hidden Content] [Hidden Content] [Hidden Content] [Hidden Content] [Hidden Content] [Hidden Content] [Hidden Content] [Hidden Content] [Hidden Content] [Hidden Content] [Hidden Content] [Hidden Content] [Hidden Content] [Hidden Content] [Hidden Content] [Hidden Content] [Hidden Content] [Hidden Content] [Hidden Content] [Hidden Content] [Hidden Content] [Hidden Content] [Hidden Content] [Hidden Content]
  5. Az Oszmán Birodalom felemelkedése (Ottoman Rising) 2020.720p.10bit.WEBRip.x265 szinkronizált, török történelmi dokumentumfilm, 45 perc, 260 Mb/rész Ez II. Mehmed szultán eredettörténete, és a Török Birodalom felemelkedésének története Konstantinápoly legendás ostromán és rákövetkező, 1453 májusi bukásán keresztül elmesélve. RENDEZŐ: Emre Sahin FORGATÓKÖNYVÍRÓ: Liz Lake, Kelly McPherson, Emre Sahin SZEREPLŐK: Charles Dance, Tuba Büyüküstün, Erdal Yildiz, Ilayda Akdogan, Cem Yigit Uzümoglu, Tommaso Basili, Selim Bayraktar [Hidden Content] [Hidden Content] [Hidden Content] [Hidden Content] [Hidden Content] [Hidden Content] [Hidden Content] [Hidden Content]
  6. Szines,magyar rajzfilmsorozat. Műfaj:mese A Kukori és Kotkoda magyar televíziós rajzfilmsorozat, amelynek forgatókönyvét Bálint Ágnes írta, Mata János rendezte. Ez volt az első olyan mesesorozat, amely a Magyar Televízió megrendelésére készült.[1] Az 1970-ben útjára induló rajzfilmsorozat alapötletét Bálint Ágnes egyik kolléganője adta; aki gyakran panaszkodott arra, hogy férje nem hajlandó semmilyen házimunka elvégzésére. Így született meg Kukori, aki lustaságával minden epizódban felbosszantja Kotkodát.[2] A rajzfilmsorozatból 1970 és 1972 között két széria, összesen 26 epizód készült el. Kukori és Kotkoda boldog házasságban élnek, azonban Kukori lustasága gyakran bosszantja Kotkodát, és okoz bonyodalmakat. Kukori ugyanis csak vonakodva végzi el a házimunkát; hiába kéri Kotkoda Író Bálint Ágnes Rendező Mata János Hang Márkus László (Kukori) Psota Irén / Hacser Józsa (Kotkoda) Producer Gyöpös Sándor Kunz Román Vágó Czipauer János Hap Magda Operatőr Bacsó Zoltán Csepela Attila Klausz András Körmöci Judit Részenkénti játékidő 7-8 perc Gyártó Pannónia Filmstúdió Szereplő Magyar hang Kukori Márkus László Kotkoda Psota Irén (1. évadban) Hacser Józsa (2. évadban) Kopasznyakú Szuhay Balázs Hápogi Horváth Gyula Gúnár filmrendező Kukás varjú Parkőr kutyája Foci kommentátor Újságos komondor Rendező Szöcske Gyenge Árpád (1. részben) Kóti Kati Pulyka Dömsödi János Liba Pulykáné Simor Erzsi Lepke Kacsa hölgy Gerle hölgy Csibe #2 Klotild Győri Ilona Róka Kaszás László TV bemondó Seres János Hattyú Kautzky József Vizsla Deák B. Ferenc Papagáj Pénztáros tyúk Sándor Iza Kecske Szersén Gyula Darazsak Horváth Pál Hangosbemondó Harcsa Gesztenyeárus nyúl Pártos Erzsi TV műsorvezető Kern András Varjú Bánhidi László Sas Sólyom edző Farkas Antal Kövér betörő róka Tyll Attila Magas betörő róka Tahi Tóth László Kertész ürge Képessy József Kánya Csibe #1 Faragó Sári Csibi Asszisztens Pathó István Riporter Csabi Kánya szakácsnő a telefonon Mányai Zsuzsa
  7. Csernobil (Chernobyl) 2019.2160p.UHD.BluRay.x265 T évad szinkronizált, amerikai történelmi dráma, minisorozat, 60 perc, 2 Gb/rész A minisorozat az 1986-os csernobili nukleáris katasztrófa történetét, az emberiség történetének legsúlyosabb, ember által előidézett katasztrófáját, illetve az orosz tudósok Európa megmentéséért folytatott drámai küzdelmét dolgozza fel. RENDEZŐ: Johan Renck FORGATÓKÖNYVÍRÓ: Craig Mazin ZENE: Hildur Gu?nadóttir SZEREPLŐK: Stellan Skarsgard, Emily Watson, Jared Harris, Fares Fares, James Cosmo, Barry Keoghan, Sam Strike [Hidden Content] [Hidden Content] [Hidden Content] [Hidden Content] [Hidden Content] [Hidden Content] [Hidden Content] [Hidden Content] [Hidden Content] [Hidden Content] [Hidden Content] [Hidden Content] [Hidden Content] [Hidden Content] [Hidden Content] [Hidden Content] [Hidden Content] [Hidden Content] [Hidden Content] [Hidden Content] [Hidden Content] [Hidden Content] [Hidden Content] [Hidden Content] [Hidden Content] [Hidden Content] [Hidden Content] [Hidden Content] [Hidden Content] [Hidden Content] [Hidden Content] [Hidden Content] [Hidden Content] [Hidden Content] [Hidden Content] [Hidden Content] [Hidden Content] [Hidden Content] [Hidden Content] [Hidden Content] [Hidden Content] [Hidden Content] [Hidden Content] [Hidden Content] [Hidden Content] [Hidden Content] [Hidden Content] [Hidden Content] [Hidden Content] [Hidden Content] [Hidden Content] [Hidden Content]
  8. Titokzatos folyó (Mystic River) 2003.2160p.10bit.SDR.BluRay.6CH.x265 szinkronizált, amerikai thriller, 137 perc, 3.4 Gb Jimmy (Sean Penn), Dave (Tim Robbins) és Sean (Kevin Bacon) együtt nőttek fel Boston egyik munkásnegyedében. Soha semmi érdekes nem történt velük ezen a környéken mindaddig, amíg Dave élete különös fordulatot nem vett. Akkor még nem sejtették, hogy ez örökre megváltoztatja mindannyiuk életét. Huszonöt évvel később újra kereszteződnek útjaik egy titokzatos és megmagyarázhatatlan gyilkosság kapcsán. RENDEZŐ: Clint Eastwood ÍRÓ: Dennis Lehane FORGATÓKÖNYVÍRÓ: Brian Helgeland ZENE: Clint Eastwood SZEREPLŐK: Sean Penn, Tim Robbins, Kevin Bacon, Laurence Fishburne, Laura Linney, Emmy Rossum, Eli Wallach, Marcia Gay Harden [Hidden Content] [Hidden Content] [Hidden Content] [Hidden Content] [Hidden Content] [Hidden Content] [Hidden Content] [Hidden Content] [Hidden Content] [Hidden Content] [Hidden Content] [Hidden Content] [Hidden Content] [Hidden Content] [Hidden Content] [Hidden Content] [Hidden Content]
  9. Szines magyar rajzfilm sorozat Műfaj:mese Részenkénti játékidő 8 perc A nagy ho-ho-horgász magyar televíziós rajzfilmsorozat, amelyet Dargay Attila és Füzesi Zsuzsa rendezett. A forgatókönyvet Csukás István és Sajdik Ferenc írta, a zenéjét Pethő Zsolt és a 100 Folk Celsius együttes szerezte, a főszerepben Balázs Péter és Mikó István hangja hallható. A sorozat két főszereplője A nagy ho-ho-horgász és a Főkukac. Író Csukás István Sajdik Ferenc Rendező Dargay Attila Füzesi Zsuzsa Hang Balázs Péter Mikó István Zeneszerző Pethő Zsolt 100 Folk Celsius Főszereplők A nagy ho-ho-horgász: Balázs Péter Főkukac: Mikó István A nagy ho-ho-horgász felesége: Tóth Judit Főkukac neje: Pálos Zsuzsa Öreg hal: Képessy József, Miklósy György (9. és 11. részből) Egérke: Kóti Kati Epizódszereplők Tollas / Rák: Sztankay István Gyöngytyúk: Bakó Márta Orvhorgász: Farkas Antal Postás: Gruber Hugó Egyik hal: Szabó Ottó Másik hal / Harcsa: Füzessy Ottó Pelikán: Ujréti László Egyik madár / Szürke tyúk: Hacser Józsa Barna tyúk: Földessy Margit Teknős: Gálvölgyi János 1985-ben készült, majd 1986-ban megjelent a Pepita hanglemez kiadónál A nagy ho-ho-ho-horgász című hanglemez a 100 Folk Celsius együttestől Média infó: General Complete name : A nagy ho horgász 3.mp4 Format : MPEG-4 Format profile : Base Media Codec ID : isom (isom/iso2/avc1/mp41) File size : 2.42 GB Duration : 2h 45s Overall bit rate : 2 168 kb/s Writing application : Lavf58.28.100 Video ID : 1 Format : AVC Format/Info : Advanced Video Codec Format profile : Baseline@L3 Format settings : 3 Ref Frames Format settings, CABAC : No Format settings, Reference frames : 3 frames Codec ID : avc1 Codec ID/Info : Advanced Video Coding Duration : 45 min 20 s Bit rate : 2 000 kb/s Width : 640 pixels Height : 480 pixels Display aspect ratio : 4:3 Frame rate mode : Constant Frame rate : 25.000 FPS Color space : YUV Chroma subsampling : 4:2:0 Bit depth : 8 bits Scan type : Progressive Bits/(Pixel*Frame) : 0.260 Stream size : 650 MiB (92%) Writing library : x264 core 157 r2970 5493be8 Encoding settings : cabac=0 / ref=3 / Codec configuration box : avcC Audio ID : 2 Format : AAC LC Format/Info : Advanced Audio Codec Low Complexity Codec ID : mp4a-40-2 Duration : 45 min 20 s Bit rate mode : Constant Bit rate : 160 kb/s Channel(s) : 2 channels Channel layout : L R Sampling rate : 44.1 kHz Frame rate : 43.066 FPS (1024 SPF) Compression mode : Lossy Stream size : 51.9 MiB (7%) Default : Yes Alternate group : 1
  10. Az elnök árnyékában (State of Affairs) amerikai dráma-thriller, 45 perc miniseries /01.- 13.rész/ 2014-2015 WEB.DL.XviD.Hundub. rendező: P.J. Pesce, Félix Enríquez Alcalá, Joshua Butler Sarah Pia Anderson, Nelson McCormick, Joe Carnahan forgatókönyvíró: Alexi Hawley, Joe Carnahan, Susan Morris producer: Jason Hellmann, Linda Burstyn, Matthew Lau Charles S. Carroll, Rudd Simmons zene: Toby Chu operatő: Yasu Tanida, Patrick Capone díszlet: Cindy Coburn, Betsy Klompus látvány: Brian Jewell, Toni Barton vágó: Kevin Hale, Jason Hellmann, Andrew Cohen szereplők: Katherine Heigl (Charleston Tucker) Adam Kaufman (Lucas Newsome) Chris McKenna (Nick Vera) Farshad Farahat (Omar Fatah) Cliff Chamberlain (Kurt Tannen) Alfre Woodard (Constance Payton elnök) Sheila Vand (Maureen James) Tommy Savas (Dashiell Greer) David Harbour (David Patrick) Christopher Michael Holley (Earl Givens) Farshad Farahat (Omar Fatah) James Remar (Syd) Courtney B. Vance (Marshall Payton) A kém-krimisorozat főhősnője egy komoly lelki traumán átesett CIA-ügynök, Charleston Tucker, akinek terroristák a szeme láttára végezték ki vőlegényét Afganisztánban. Tucker ügynök egy elemző csoportot irányít és közvetlenül jelent az elnökasszonynak, hivatásában ezért sosem hibázhat........ Videó információk: Méret: 460-520 MB Hossz: 0:44:30 Típus: AVI (xvid - ) Felbontás: 720 x 406 pixel Bitráta: 1 246- 1 485 Kbps Képkockák száma/mp: 23.976 Oldalarány: 16 : 9 Audió információk: Audiósávok száma: 1 Audiosáv #1 adatai: Audiósáv típusa: AC3 (AC3) Csatornák száma: 2 Bitráta: 192 Kbps CBR Mintavételezési frekvencia: 48.0 KHz [Hidden Content] [Hidden Content] [Hidden Content] [Hidden Content] [Hidden Content] [Hidden Content] [Hidden Content] [Hidden Content] [Hidden Content] [Hidden Content] [Hidden Content] [Hidden Content] [Hidden Content] [Hidden Content] [Hidden Content] [Hidden Content] [Hidden Content] [Hidden Content] [Hidden Content] [Hidden Content] [Hidden Content] [Hidden Content] [Hidden Content] [Hidden Content] [Hidden Content] [Hidden Content] [Hidden Content] [Hidden Content] [Hidden Content] [Hidden Content] [Hidden Content] [Hidden Content] [Hidden Content] [Hidden Content] [Hidden Content] [Hidden Content] [Hidden Content] [Hidden Content] [Hidden Content]
  11. Vaják (The Witcher) 2019.2160p.HDR.NF.WEBRip6CH.x265. T évad szinkronizált, lengyel-amerikai akciófilm-sorozat, drámasorozat, 60 perc, 2 Gb/rész A hétköznapi emberek és mágikus erővel rendelkező lények (tündék, törpök, vámpírok, alakváltók, egyszarvúak) által benépesített világban él Ríviai Geralt: egy bérgyilkos, aki veszedelmes szörnyek kiirtásával/hatástalanításával foglalkozik. Egy nap összeáll egy nagy hatalmú varázslónővel és egy fiatal hercegnővel, hogy együtt küzdjenek meg a démonokkal. RENDEZŐ: Alik Sakharov, Charlotte Brandström ÍRÓ: Andrzej Sapkowski FORGATÓKÖNYVÍRÓ: Lauren Schmidt, Declan De Barra, Beau DeMayo, Haily Hall ZENE: Sonya Belousova, Giona Ostinelli SZEREPLŐK: Henry Cavill, Matt Devere, Jodhi May, Trokán Nóra, Árpa Attila, Steve Wall, Lars Mikkelsen, Eamon Farren [Hidden Content] [Hidden Content] [Hidden Content] [Hidden Content] [Hidden Content] [Hidden Content] [Hidden Content] [Hidden Content] [Hidden Content] [Hidden Content] [Hidden Content] [Hidden Content] [Hidden Content] [Hidden Content] [Hidden Content] [Hidden Content] [Hidden Content] [Hidden Content] [Hidden Content] [Hidden Content] [Hidden Content] [Hidden Content] [Hidden Content] [Hidden Content] [Hidden Content] [Hidden Content] [Hidden Content] [Hidden Content] [Hidden Content] [Hidden Content] [Hidden Content] [Hidden Content] [Hidden Content] [Hidden Content] [Hidden Content] [Hidden Content] [Hidden Content] [Hidden Content] [Hidden Content] [Hidden Content] [Hidden Content] [Hidden Content] [Hidden Content] [Hidden Content] [Hidden Content] [Hidden Content] [Hidden Content] [Hidden Content] [Hidden Content] [Hidden Content] [Hidden Content] [Hidden Content] [Hidden Content] [Hidden Content] [Hidden Content] [Hidden Content] [Hidden Content] [Hidden Content] [Hidden Content] [Hidden Content] [Hidden Content] [Hidden Content] [Hidden Content] [Hidden Content] [Hidden Content] [Hidden Content] [Hidden Content] [Hidden Content] [Hidden Content] [Hidden Content] [Hidden Content] [Hidden Content] [Hidden Content] [Hidden Content] [Hidden Content] [Hidden Content] [Hidden Content] [Hidden Content] [Hidden Content]
  12. 19-ES KÖRZET 01 [1080p x264 mkv] [avi(xvid)] (Station.19) amerikai akció-dráma-romantika, 45 perc 01.évad /01.- 10.rész/ 2019 WEB-DL.mkv.1080p.x264.HunDub.2.0.AC3 vs. WEB-DL.XviD.HunDub.2.0.AC3 rendező: Paris Barclay, Tessa Blake Nicole Rubio, Marcus Stokes forgatókönyvíró: Stacy McKee, Shonda Rhimes Omaira Galarza, Barbara Friend zeneszerző: Photek operatőr: Oliver Bokelberg, Paul Maibaum Daryn Okada, James L. Carter vágó: David Greenspan, Jonathan Pledger Gregory T. Evans, Gregory Cusumano jelmez: Tom Houchins, Sabrina Rosen díszlet: Jeffrey Kushon, Lisa Clark látvány: Brian Grego producer: Phillip Iscove, Christine Larson-Nitzsche Angela Harvey, Betsy Beers szereplők: Jaina Lee Ortiz (Andy Herrera) Jason George (Ben Warren) Grey Damon (Jack Gibson) Barrett Doss (Victoria Hughes) Alberto Frezza (Ryan Tanner) Jay Hayden (Travis Montgomery) Okieriete Onaodowan (Dean Miller) Danielle Savre (Maya Bishop) Miguel Sandoval (Pruitt Herrera) Boris Kodjoe (Captain Robert Sullivan) Brett Tucker (Fire Chief Lucas Ripley) Egy csapatnyi tűzoltó heroikus küzdelmét követhetjük nyomon a Seattle-ben működő 19-es számú tűzoltóságon ? a parancsnoktól egészen az újoncokig ?, amint életüket és emberi kapcsolataikat is kockára teszik munka közben és azon túl is..... Videó információk:HD.mkv.1080px264 Méret: 2,95 GB Hossz: 00:43:02 Típus: Matroska (MKV) Kódolás típusa: Advanced Video Codec (AVC) Formátum profil: High@L4 Felbontás: 1920 x 1080 pixel Adatsebesség (Bitráta): 9 350 Kbps Képkockák száma/mp: 23.976 Oldalarány: 16 : 9 Audió információk: Audiósáv:#1 Language-Hungarian Audiósávok száma:1 Audiósáv típusa: AC3(2.0) Csatornák száma: 2 Adatsebesség (Bitráta): 192 Kbps CBR Mintavételezési frekvencia: 48.0 KHz Videó információk: Méret: 520 MB Hossz: 00:43:04 Típus: AVI (xvid - ) Felbontás: 720 x 406 pixel Bitráta: 1 486 Kbps Képkockák száma/mp: 23.976 Oldalarány: 16 : 9 Audió információk: Audiósávok száma: 1 Audiosáv: #1 Language-Hungarian Audiósáv típusa: AC3 (AC3)(stereo) Csatornák száma: 2 Bitráta: 192 Kbps CBR Mintavételezési frekvencia: 48.0 KHz [Data Premium] [Hidden Content] [Data Free] [Hidden Content]
  13. Trónok harca (Game of Thrones) 2011-.2160p.HDR10+.BluRay.x265 szinkronizált, amerikai kaland, fantasy, drámasorozat, 55 perc, 1.6 Gb Westeros királyság északi határát hatalmas jeges fal választja el az örök tél birodalmától. Lord Eddard "Ned" Stark az északi birodalom, Deres (Winterfell) ura és az északi nemesek vezére, az ő ősei építették a Falat, amelyet az Éjjeli Őrség véd. Amikor Robert király tanácsadója és Ned mentora, Jon Arryn meghal, Robert Baratheon a barátját, Nedet kéri fel, hogy lépjen a helyébe. Eközben a régi uralkodóház, a Targaryenek utolsó leszármazottja, Viserys azt tervezi, hogy visszaszerzi a trónt. Szövetséget köt a nomád dothraki harcosokkal, és vezérüknek, Khal Drogónak adja a húga, Daenerys kezét. Baratheon király és a felesége, a Lannister-házbeli Cersei királyné Deresbe utazik. Velük tart a Lannister família több tagja: a királyné ikertestvére, Jaime, a másik testvére, a törpe Tyrion, illetve a királyné tizenkét éves fia, a trón örököse, Joffrey. Ned nem utasíthatja vissza öreg királya és barátja kérését, így a birodalom fővárosába készül. Mindeközben Havas Jon elhatározza, hogy északra utazik a Fekete Kastélyba, hogy csatlakozzon az Éjjeli Őrséghez, ahová a kíváncsi Tyrion is elkíséri. De az ifjú Bran sötét titokra bukkan, ami nem várt következményekkel jár... RENDEZŐ: David Nutter, Alan Taylor, Alex Graves FORGATÓKÖNYVÍRÓ: David Benioff, George R. R. Martin, D. B. Weiss, Dave Hill ZENE: Ramin Djawadi SZEREPLŐK: Peter Dinklage, Emilia Clarke, Kit Harington, Sean Bean, Lena Headey, Sophie Turner, Jason Momoa 6. évad [Hidden Content] [Hidden Content] [Hidden Content] [Hidden Content] [Hidden Content] [Hidden Content] [Hidden Content] [Hidden Content] [Hidden Content] [Hidden Content] [Hidden Content] [Hidden Content] [Hidden Content] [Hidden Content] [Hidden Content] [Hidden Content] [Hidden Content] [Hidden Content] [Hidden Content] [Hidden Content] [Hidden Content] [Hidden Content] [Hidden Content] [Hidden Content] [Hidden Content] [Hidden Content] [Hidden Content] [Hidden Content] [Hidden Content] [Hidden Content] [Hidden Content] [Hidden Content] [Hidden Content] [Hidden Content] [Hidden Content] [Hidden Content] [Hidden Content] [Hidden Content] [Hidden Content] [Hidden Content] [Hidden Content] [Hidden Content] [Hidden Content] [Hidden Content] [Hidden Content] [Hidden Content] [Hidden Content] [Hidden Content] [Hidden Content] [Hidden Content] [Hidden Content] [Hidden Content] [Hidden Content] [Hidden Content] [Hidden Content] [Hidden Content] [Hidden Content] [Hidden Content] [Hidden Content] [Hidden Content] [Hidden Content] [Hidden Content] [Hidden Content] [Hidden Content] [Hidden Content] [Hidden Content] [Hidden Content] [Hidden Content] [Hidden Content] [Hidden Content] [Hidden Content] [Hidden Content] [Hidden Content] [Hidden Content] [Hidden Content] [Hidden Content] [Hidden Content] [Hidden Content] [Hidden Content] [Hidden Content] [Hidden Content] [Hidden Content] [Hidden Content] [Hidden Content] [Hidden Content] [Hidden Content] [Hidden Content] [Hidden Content] 7. évad [Hidden Content] [Hidden Content] [Hidden Content] [Hidden Content] [Hidden Content] [Hidden Content] [Hidden Content] [Hidden Content] [Hidden Content] [Hidden Content] [Hidden Content] [Hidden Content] [Hidden Content] [Hidden Content] [Hidden Content] [Hidden Content] [Hidden Content] [Hidden Content] [Hidden Content] [Hidden Content] [Hidden Content] [Hidden Content] [Hidden Content] [Hidden Content] [Hidden Content] [Hidden Content] [Hidden Content] [Hidden Content] [Hidden Content] [Hidden Content] [Hidden Content] [Hidden Content] [Hidden Content] [Hidden Content] [Hidden Content] [Hidden Content] [Hidden Content] [Hidden Content] [Hidden Content] [Hidden Content] [Hidden Content] [Hidden Content] [Hidden Content] [Hidden Content] [Hidden Content] [Hidden Content] [Hidden Content] [Hidden Content] [Hidden Content] [Hidden Content] [Hidden Content] [Hidden Content] [Hidden Content] [Hidden Content] [Hidden Content] [Hidden Content] [Hidden Content] [Hidden Content] [Hidden Content] [Hidden Content] [Hidden Content] [Hidden Content] 8. évad [Hidden Content] [Hidden Content] [Hidden Content] [Hidden Content] [Hidden Content] [Hidden Content] [Hidden Content] [Hidden Content] [Hidden Content] [Hidden Content] [Hidden Content] [Hidden Content] [Hidden Content] [Hidden Content] [Hidden Content] [Hidden Content] [Hidden Content] [Hidden Content] [Hidden Content] [Hidden Content] [Hidden Content] [Hidden Content] [Hidden Content] [Hidden Content] [Hidden Content] [Hidden Content] [Hidden Content] [Hidden Content] [Hidden Content] [Hidden Content] [Hidden Content] [Hidden Content] [Hidden Content] [Hidden Content] [Hidden Content] [Hidden Content] [Hidden Content] [Hidden Content] [Hidden Content] [Hidden Content] [Hidden Content] [Hidden Content] [Hidden Content] [Hidden Content] [Hidden Content] [Hidden Content] [Hidden Content] [Hidden Content] [Hidden Content] [Hidden Content] [Hidden Content] [Hidden Content] [Hidden Content] [Hidden Content] [Hidden Content] [Hidden Content] [Hidden Content] [Hidden Content] [Hidden Content] [Hidden Content] [Hidden Content] [Hidden Content] [Hidden Content] [Hidden Content] [Hidden Content] [Hidden Content] [Hidden Content] [Hidden Content] [Hidden Content] [Hidden Content]
  14. Az utolsó menedék (Greenland) amerikai akció-dráma-thriller, 120 perc, 2020 BDRip.HD720p.MKV.H264.HunDub.2.0.AC3. vs. BDRip.XviD.HunDub.AC3.2.0 rendező: Ric Roman Waugh forgatókönyvíró: Chris Sparling producer: Gerard Butler, Sébastien Raybaud operatőr: Dana Gonzales díszlettervező: Frank Galline jelmeztervező: Kelli Jones zene: David Buckley látványtervező: Eric R. Johnson vágó: Gabriel Fleming szereplők: Gerard Butler - John Garrity Morena Baccarin - Allison Garrity Roger Dale Floyd - Nathan Garrity Scott Glenn - Dale Randal Gonzalez - Bobby Rick Pasqualone - National News Anchor Nicola Lambo - Morning Show Host Alan Pietruszewski - Morning Show Host Scott Poythress - Kenny Claire Bronson - Debra Jones Madison Johnson - Ellie Jones Gary Weeks - Ed Pruitt Tracey Bonner - Peggy Pruitt Egy hatalmas méretű üstökös közelít a Föld felé, amely az emberiség teljes pusztulását okozhatja. A totális káosz, és tömeges pánik közepette John Garrity is menekülésre kényszerül családjával. Az elszánt férfi csak egy dolgot akar: biztonságban tudni feleségét és kisfiát. A végzetes, apokaliptikus katasztrófa árnyékában Garrity bármire képes, hogy eljuttassa szeretteit a Föld utolsó, védelmet nyújtó menedékére...... Videó információk: mkv.720px264 Méret: 5,19 GB Hossz: 01:59:35 Típus: Matroska (MKV) Kódolás típusa: Advanced Video Codec (AVC) Formátum profil: High@L4.1 Felbontás: 1280 x 536 pixel Adatsebesség (Bitráta): 5 838 Kbps Képkockák száma/mp: 23.976 Oldalarány: 2.40 : 1 Audió információk: Audiósáv:#1 Language-Hungarian Audiósávok száma:1 Audiósáv típusa: AC3(2.0) Csatornák száma: 2 Adatsebesség (Bitráta): 256 Kbps CBR Mintavételezési frekvencia: 48.0 KHz Videó információk: Méret: 1,35 GB Hossz: 01:59:35 Típus: AVI (xvid - ) Felbontás: 720 x 304 pixel Bitráta: 1 353 Kbps Képkockák száma/mp: 23.976 Oldalarány: 2.35 : 1 Audió információk: Audiósávok száma: 1 Audiosáv #1 adatai: Audiósáv típusa: AC3 (2.0) Csatornák száma: 2 Bitráta: 256 Kbps CBR Mintavételezési frekvencia: 48.0 KHz Felirat: HUNGARIAN FORCED-UTF-8 [Data Premium]HD720p [Hidden Content] [Hidden Content] [Hidden Content] [Hidden Content] [Hidden Content] [Data Free]SD.AVI [Hidden Content] [Hidden Content] [Hidden Content] [Hidden Content] [Hidden Content] [Hidden Content] [Hidden Content] [Hidden Content]
  15. 9-1-1:Texas [720p-480p x264 mkv 01 (9-1-1:Lone Star) amerikai akció-dráma-thriller, 43 perc 01.évad /01.- 10.rész/ 2020 (kiegészítő felirat a csomagban) MKV.WEB.DL.HD720p.H264.HunDub.2.0.AC3. vs. MKV.WEB.DL.SD480p.H264.HunDub.2.0.AC3. rendező: Bradley Buecker, Marita Grabiak, John J. Gray forgatókönyvíró: Brad Falchuk, Tim Minear, Ryan Murphy Molly Green, James Leffler, Kristy Lowrey zeneszerző: Justin Caine Burnett, Todd Haberman, Mac Quayle operatőr: Andrew Strahorn producer: Lou Eyrich, Eryn Krueger Mekash, Carly Soteras Scott White, Tonya Kong vágó: Charles Little, Ravi Subramanian, Julie Drazen Spencer Koobatian, Greg Sirota szereplők: Rob Lowe - Owen Strand Liv Tyler - Michelle Blake Jim Parrack - Judd Ryder Julian Works - Mateo Chavez Ronen Rubinstein - T.K. Strand Sierra Aylina McClain - Grace Ryder Natacha Karam - Marjan Marwani Brian Michael Smith - Paul Strickland Rafael L. Silva - Carlos Reyes Brianna Baker - Nancy Gillian Mark Elias - Tim Rosewater Albert Kong - Zach Nina Concepción - Bree Brett Rice - Wayne Gettinger Kyle Secor - Deputy Fire Chief Alden Radford Mary Kay Place - Theresa Blake Egy New York-i tűzoltószázados Owen Strand, aki a szeptember 11-ei támadást egyedül élte túl az egységéből, fiával együtt a texasi Austinba költözik, ahol az emberek életének megmentéséért dolgozik, miközben megpróbálja megoldani saját személyes problémáit és ahol egy hasonló sorsú tűzoltó egységet próbál újjáéleszteni...... Videó információk: mkv.720px264 Méret: 1,35 GB Hossz: 00:43:30 Típus: Matroska (MKV) Kódolás típusa: Advanced Video Codec (AVC) Formátum profil: High@L3.1 Felbontás: 1280 x 720 pixel Adatsebesség (Bitráta): 4 450 Kbps Képkockák száma/mp: 23.976 Oldalarány: 16 : 9 Audió információk: Audiósáv:#1 Language-Hungarian Audiósávok száma:1 Audiósáv típusa: AC3(2.0) (stereo) Csatornák száma: 2 Adatsebesség (Bitráta): 192 Kbps CBR Mintavételezési frekvencia: 48.0 KHz Videó információk: mkv.480px264 Méret: 355 MB Hossz: 00:43:30 Típus: Matroska (MKV) Kódolás típusa: Advanced Video Codec (AVC) Formátum profil: High@L3.1 Felbontás: 720 x 404 pixel Adatsebesség (Bitráta): 850 Kbps Képkockák száma/mp: 23.976 Oldalarány: 16 : 9 Audió információk: Audiósávok száma: 1 Audiosáv #1 adatai: Audiósáv típusa: AC3 (AC3) Csatornák száma: 2 Bitráta: 192 Kbps CBR Mintavételezési frekvencia: 48.0 KHz Felirat: HUNGARY FORCED UTF-8 [Data Premium] [Hidden Content] [Data Free] [Hidden Content] [Hidden Content] [Hidden Content] [Hidden Content] [Hidden Content] [Hidden Content] [Hidden Content] [Hidden Content] [Hidden Content] [Hidden Content] [Hidden Content] [Hidden Content] [Hidden Content] [Hidden Content] [Hidden Content] [Hidden Content] [Hidden Content] [Hidden Content] [Hidden Content] [Hidden Content] [Hidden Content] [Hidden Content]
  16. 4 Blocks. 2017.720p.10bit.BluRay.x265 1.T 2. évad szinkronizált, német drámasorozat, 60 perc, 310 Mb/rész A neuköllni arab bűnbanda vezetője, Ali „Toni” Hamady megígérte a feleségének, hogy jó útra tér, de ahogy azt sejtettük, ez nem megy olyan egyszerűen. Egy esztendővel a Cthulhu motoros bandával való összecsapás után sok változás történt Toni életében: Abbasz gyilkosság miatt bíróság elé került, Amara új életet kezd Latiffal, és Toni végre beléphet az ingatlanpiacra, amiről mindig is álmodott. A család befolyásának kiterjesztése azonban nemcsak a Kalilával való házasságát veszélyezteti, a konkurens bűnbanda, az erős al-Saafis sem akarja harc nélkül föladni a területét. RENDEZŐ: Özgür Yildirim, Marvin Kren FORGATÓKÖNYVÍRÓ: Hanno Hackfort, Bob Konrad, Richard Kropf, Marvin Kren ZENE: Stefan Will, Marco Dreckkötter SZEREPLŐK: Frederick Lau, Ronald Zehrfeld, Marc Hosemann, Almila Bagriacik, Ludwig Trepte, Kida Khodr Ramadan, Karolina Lodyga 1. évad [Hidden Content] [Hidden Content] [Hidden Content] [Hidden Content] [Hidden Content] [Hidden Content] [Hidden Content] [Hidden Content] [Hidden Content] 2. évad [Hidden Content] [Hidden Content] [Hidden Content] [Hidden Content] [Hidden Content] [Hidden Content] [Hidden Content] [Hidden Content] [Hidden Content] [Hidden Content] [Hidden Content] [Hidden Content] [Hidden Content] [Hidden Content] 3. évad [Hidden Content] [Hidden Content] [Hidden Content] [Hidden Content] [Hidden Content] [Hidden Content] [Hidden Content] [Hidden Content] [Hidden Content] [Hidden Content] [Hidden Content] [Hidden Content]
  17. Szines,magyar rajzfilm mese sorozat 1973-1983 Részenkénti játékidő 13 perc A Kérem a következőt! magyar televíziós rajzfilmsorozat, amelyet a Pannónia Filmstúdió készített. Eredeti címe helyett a sorozatot gyakran Dr. Bubó néven említik, mivel főhőse egy bagoly orvos, aki az erdőlakó állatok bajait kezeli ki, többnyire kevés sikerrel. A sorozat alkotója Nepp József, aki Romhányi Józseffel együtt írta a forgatókönyvet és a dialógokat. A rajzfilmet Ternovszky Béla rendezte. A sorozat, mint a legtöbb magyar rajzfilm ezen alkotóktól, felnőttsorozat, bár a gyerekek körében is népszerű. Számos olyan pszichológiai és társadalmi problémát gúnyol ki, amely csak felnőtt nézők számára érthető. Az egyes állatszereplők voltaképpen egy-egy negatív emberi jellem karikatúrái. Írók Romhányi József Nepp József ]b]Rendezők[/b] Nepp József Ternovszky Béla Hernádi Oszkár (1–11) Haui József (12–13) Producer Gyöpös Sándor Hutlassa Tamás Komlós Klári Mikulás Ferenc Vágó Hap Magda Operatőr Bacsó Zoltán Csepela Attila Kassai Klári Klausz András Kovács Mihály Pethes Zsolt Polyák Sándor Varga György Gyártó Pannónia Filmstúdió Főcímdal – Előadja: Szabó Gyula, Csala Zsuzsa és mások. Szereplők Hangja Dr. Bubó Szabó Gyula Csőrmester Bodrogi Gyula Ursula Csala Zsuzsa Teknőc Ernő Gyenge Árpád (első két évadban)Gera Zoltán (3.évadban) Elefánt Fáni (1. hang, 1. részben) Psota Irén Nyúl (1. hang, 2. részben) Tahi Tóth László Bolha Eduárd Körmendi János Krokodil (1. hang, 4. részben) Somogyvári Rudolf Sün (1. hang, 5. részben) Balázs Péter Sáska hadvezér Haumann Péter Vadkan (1. hang, 1. évadban) Agárdy Gábor Vadkoca (1. hang, 1. évadban) Báró Anna Pillangisták Horesnyi László Kos Velenczey István Arany bárány Borbás Gabi Szarka Terka (1. hang, 12. részben) Lorán Lenke Szarka Berta Magda Gabi Liba hölgy (1. hang, 2. évadban) Bakó Márta Strucc kisasszony (2. hang, 23. részben) Váradi Hédi Béka Réka Tábori Nóra Fekete párduc Buss Gyula Vakond (3. hang, 3. évadban) Elekes Pál Marha (2. hang, 3. évadban) Győrffy György Farkas Csurka László Zsiráf Márton András 3-as versenyló Székhelyi József Leó király (1. hang, 3. részben) Alfonzó Jós béka Mosómedve Bajka Pál Ürge úr (2. hang, 28. részben) Vadkan (3. hang, 29. részben) Bernáthegyi (3. hang, 39. részben) Hiéna (3. hang, 30. részben) Botár Endre Puli rendőr Trafikos Spicc Tojásárus strucc Czigány Judit Tyúk hölgy Pupuné Kamélia (2. hang, 2. évadban) Borz hölgy Liba hölgy (2. hang, 3. évadban) Páviánné (2. hang, 31. részben) Dallos Szilvia Pelikánné Vadkandúr (2. hang, 35. részben) Szemárpás majom Deák B. Ferenc Újságos kakas (1. hang, 1. évadban) Szarvasbika (1. hang, 1. évadban) Bolháné Detre Annamária Gólya kisasszony Varjú Ottokár Erdődy Kálmán Holló Oszkár Pabló Gorilla edzője Farkas Antal Rozmár Oszkár Bivaly Sas Erkölcscsősz #1 Hajóskapitány Farkas társa Kukac Fodor Tamás Szarvasbika (3. hang, 3. évadban) Kenguru (2. hang, 3. évadban) Zebra (2. hang, 3. évadban) Pocok úr (3. hang, 26. részben) Almás, az 5-ös versenyló Antilop asszony Földessy Margit Szarvastehén (3. évadban) TV-bemondó kacsa hölgy Szarvastehén (1. évadban) Géczy Dorottya Birkamama a gyerekeivel Pabló Gorilla Gelley Kornél Szarvasbika (2. hang, 2. évadban) Csődőr (2. hang, 27. részben) Gyabronka József Sün (3. hang, 28. részben) Csiga (2. hang, 29. részben) Elefánt Fáni (3. hang, 31. részben) Győri Ilona Szarka Terka (2. hang, 38. részben) Pocokné Hacser Józsa Strucc kisasszony (1. hang, 23. részben) Kenguruné Sün (2. hang, 27. részben) Harkányi Endre Mókus Barna Hörcsög vezérigazgató Horkai János Patkány Pávián Fábián (3. hang, 30. részben) Véreb Félszemű terrorista Ráró bíró Horváth Pál Vakond (2. hang, 13. részben) Bernáthegyi (1. hang, 2. évadban) Elefánt úr Kecske elnök Kaló Flórián Sakál inas Róka prókátor Pávián Fábián (2. hang, 29. részben) Orrszarvú Képessy József Főtűzoltó elefánt Vendéglős rozmár Pelikán úr Pávián Fábián (1. hang) Kern András Fekete bárány Sajtófőnök Hiéna (1. hang, 2 évadban) Vadkandúr (1. hang, 13. részben) Strucc fióka Kenguru fogadópartnere Görény Csonkafülű terrorista Zebra (1. hang, 3. részben) Kibédi Ervin Szamár Márton (1. hang, 25. részben) Harkály Komlós András Menyét (Sakál) 7-es versenyló Keselyű Láng József Csimpánz Alfonz Kakukk Benő Marha (1. hang, 2. évadban) Jaguár Csődör (1. hang, 26. részben) Tigris (1. hang, 29. évadban) Szarka Ferkó Maros Gábor Pocok Lipót Lajhár Miklósy György Kék róka Hörcsög titkárnő Pálos Zsuzsa Csengős bárány Lepke Lenke Kakukk kisasszony Ürgéné Kuvik Viki, Dr. Bubó nagynénje Pártos Erzsi Madame tyúk Boa (Főcímben és 2. évadban) Pathó István Csörgőkígyó lány Pocok Ürge (1. hang, 17. részben) Nyúl (2. hang, 25. részben) Denevér Kacsa Rátonyi Róbert Kos váloperes ügyvéd Szamárné Schubert Éva Elefánt Fáni (2. hang, 15. részben) Vadkoca (2. hang, 3. évadban) Róka hölgy Vakond (1. hang, első-két évadban) Suka Sándor Gödény Tasakospatkány (Ürge) Béka úr (2. hang, 34. részben) Surányi Imre Zöldséges kecske Kecske szabó Víziló Jónás Szabó Ottó Krokodil (2. hang, 30. részben) Orangután tanár Szatmári István Szamár Márton (2. hang, 29. részben) Csiga (1. hang, 29. részben) Szombathy Gyula 2-es versenyló Hiéna (4. hang, 38. részben) Kenguru Szuhay Balázs Játékvezető papagáj Vadkandúr (3. hang, 38. részben) Kakas Birka Borka Tóth Judit Kanca (1. hang, 2. évadban) Vizsla csősz Tyll Attila Csimpánz Alfonz edzője Vezér szarvasbika Leó király (2. hang, 2. évadban) Béka úr (1. hang, 2. évadban) Ürge (2. hang, 25. részben) Pupu (2. hang, 3. évadban) Vadkan (2. hang, 3. évadban) Fóka Vándor József Tigris (2. hang, 30. évadban) Pézsmapocok Fehér mellényes terrorista Bernáthegyi (2. hang, 3. évadban) Varga T. József Hiéna (2. hang, 29. részben) Újságos kakas (2. hang, 3. évadban) Kenguru (3. hang, 33. részben) Boa (3. évadban) Pupuné Kamélia (1. hang, 2. évadban) Vay Ilus Kanca (2. hang, 3. évadban) Páviánné (1. hang, 30. részben) Tehén Postás holló Verebély Iván Pupu (1. hang, 2. évadban) Szamár Márton (3. hang, 30. részben) Egér küldönc Rajzolták: Agócs Zsuzsanna, Bakai Piroska, Bárány Zsuzsa, Baumann Miklós, Békési Sándor, Berdin Beáta, Bíró János, Boros József, Czája Éva Ágnes, Farkas Antal, Fonyódi Katalin, Fülöp Márta, Gregán Gizella (3. évadban), Gyarmathy Ildikó, Gyurkovics Bea, Hangya János, Holpert László, Javorniczky Nóra, Jonák Tamás, Kanics Gabriella, Kárpáth Mária, Kecskés Magda, Kiss Ilona, Kiss Iván, Kocsis Lénárd, Kovács István, Kreitz Zsuzsa, Kukányi Imre, Maros Zoltán, Mátrainé Óvári Éva, Nyírő Erzsébet, Orbán Anna, Palkó József, Polyák Zita, Prunner Gabriella, Raics Éva, Rajkay György, Révész Gabriella, Rosta Géza, Seregi Katalin, Szabados István, Szabados Mária, Szalay András, Száz Zsuzsa, Szűcs Édua, Tóth Lajos (3. évadban), Udvarnoki József, Vágó Sándor, Vásárhelyi Magda, Velebil Zsuzsa, Visnyei Ilona, Völler Ágnes, Zsebényi Béla, Zsebényi Mária MediaInfo Format : MPEG-4 Format profile : Base Media Codec ID : isom (isom/iso2/avc1/mp41) File size : 1.42 GiB Duration : 1 h 34 min Overall bit rate mode : Variable Overall bit rate : 2 151 kb/s Writing application : Lavf56.40.101 Video ID : 1 Format : MP4 Format/Info : Advanced Video Codec Format profile : Main@L3.1 Format settings : CABAC / 4 Ref Frames Format settings, CABAC : Yes Format settings, Reference frames : 4 frames Codec ID : avc1 Codec ID/Info : Advanced Video Coding Duration : 1 h 34 min Bit rate : 2 017 kb/s Width : 996 pixels Height : 720 pixels Display aspect ratio : 1.383 Frame rate mode : Constant Frame rate : 25.000 FPS Color space : YUV Chroma subsampling : 4:2:0 Bit depth : 8 bits Scan type : Progressive Bits/(Pixel*Frame) : 0.112 Stream size : 1.33 GiB (94%) Writing library : x264 core 148 Encoding settings : cabac=1 / ref=3 / deblock=1:0:0 / Codec configuration box : avcC Audio ID : 2 Format : AAC LC Format/Info : Advanced Audio Codec Low Complexity Codec ID : mp4a-40-2 Duration : 1 h 34 min Duration_LastFrame : -9 ms Bit rate mode : Variable Bit rate : 128 kb/s Maximum bit rate : 2 048 kb/s Channel(s) : 2 channels Channel layout : L R Sampling rate : 44.1 kHz Frame rate : 43.066 FPS (1024 SPF) Compression mode : Lossy Stream size : 86.4 MiB (6%) Default : Yes Alternate group : 1 Epizódok
  18. A Pom Pom meséi 1980-tól 1984-ig vetített magyar televíziós rajzfilmsorozat, amelyet Dargay Attila rendezett és Sajdik Ferenc rajzolt. A sorozat két főszereplője Pom Pom és Picur. Műfaj mese Írók Csukás István Sajdik Ferenc Rendező Dargay Attila Hang Petrik József Kútvölgyi Erzsébet Kovács Klára Körmendi János Csákányi László Zeneszerző Pethő Zsolt Részenkénti játékidő 8 perc Gyártó Pannónia Filmstúdió Animátor: Bakai Piroska, Foky Emmi, Füzesi Zsuzsa Rajzolták: Bajnóczky Andrásné, Bakai Piroska, Balogh János, Dékány Ferenc, Foky Emmi, Fülöp Márta, Füzesi Zsuzsa, Gyarmathy Ildikó, Kovács Magda, Radvány Zsuzsa, Sostarics Yvette, Szabados Mária, Zákányi Balázsné,Színes technika: György Erzsébet, Kun Irén Szereplők és hangjuk: Pom Pom: Petrik József Picur: Kútvölgyi Erzsébet (1. évadban 6 részében), Kovács Klára (1. évad 8 részében / 2. évadban) Gombóc Artúr: Körmendi János (1. évadban), Csákányi László (2. évadban) Radírpók; Órarugógerincű Felpattanó; Durrbelebumm; További szereplők: Gálvölgyi János Vastalpú cölöpverő; Torzonborz kalapevő; További szereplők: Farkas Antal Festéktüsszentő Hapci Benő; Tűzoltóparancsnok; További szereplők: Miklósy György Ásító Sárkány; További szereplők: Raksányi Gellért Jég Kornél; Bátor Tintanyúl; További szereplők: Márton András Madárvédő golyókapkodó; További szereplők: Horkai János Madár kereskedő: Harkányi Endre Zebra: Versényi László Antonius; Tehén Malvin: Szerencsi Éva Tehén Aranka: Győri Ilona Hugó Dugó: Horváth Gyula Óriásmadár fióka: Vajda László Mindentragasztó Rezső; További szereplők: Bajka Pál Körbevágó körömolló; További szereplők: Perlaki István További szereplők: Bakó Márta, Czigány Judit, Komlós András, Márton András, Tyll Attila Epizódok Szegény Gombóc Artúr A radírpók A (madárvédő) golyókapkodó Órarugógerincű felpattanó Festéktüsszentő Hapci Benő Hó Kornél A civakodó cipőikrek A szomorú szamovár Durrbele Bumm Gombóc Artúr a télapó A vastalpú cölöpverő A bátor tintanyúl Az ásító sárkány Az egylábú esernyőmadár A mágneskörmű szögkihúzó A zengőtorkú nyivákoló A huhogó dugó A csipogó húsvéti tojás A benzinszívó szúnyog Lesből támadó szárítókötél Torzonborz kalapevő Óriástüdejű levegőfújó Mindent ragasztó Rezső Önműködő vasaló A körbevágó körömolló A zengő-bongó fésű Bónusz Epub,mobi,pdf formátumba General Complete name : pompom meséi.mp4 Format : MPEG-4 Format profile : Base Media Codec ID : isom (isom/iso2/avc1/mp41) File size : 406 MiB Duration : 1 h 50 min Overall bit rate mode : Variable Overall bit rate : 166 kb/s Writing application : Lavf58.28.100 Video ID : 1 Format : AVC Format/Info : Advanced Video Codec Format profile : Baseline@L3 Format settings : 3 Ref Frames Format settings, CABAC : No Format settings, Reference frames : 3 frames Codec ID : avc1 Codec ID/Info : Advanced Video Coding Duration : 7 min 20 s Bit rate : 2 000 kb/s Width : 640 pixels Height : 480 pixels Display aspect ratio : 4:3 Frame rate mode : Constant Frame rate : 25.000 FPS Color space : YUV Chroma subsampling : 4:2:0 Bit depth : 8 bits Scan type : Progressive Bits/(Pixel*Frame) : 0.260 Stream size : 104 MiB (90%) Writing library : x264 core 157 r2970 5493be8 Encoding settings : cabac=0 / ref=3 / Codec configuration box : avcC Audio ID : 2 Format : AAC LC Format/Info : Advanced Audio Codec Low Complexity Codec ID : mp4a-40-2 Duration : 1 h 36 min Bit rate mode : Variable Bit rate : 14.1 kb/s Maximum bit rate : 160 kb/s Channel(s) : 2 channels Channel layout : L R Sampling rate : 44.1 kHz Frame rate : 43.066 FPS (1024 SPF) Compression mode : Lossy Stream size : 9.77 MiB (9%) Default : Yes Alternate group : 1 [Hidden Content] [Hidden Content] [Hidden Content] [Hidden Content]
  19. Szines,magyar bábfilmsorozat Műfaj: mese, vígjáték A Mekk Elek, az ezermester 1974-től 1975-ig futott magyar televíziós bábfilmsorozat, amelyet a Pannónia Filmstúdió készített 1973-ban. A történet főszereplője egy kecske, Mekk Elek vagy Mekk Mester. Mekk Elek ezermesternek adja ki magát, valójában pedig nem ért szinte semmihez sem. Számos mesterséggel megpróbálkozik, sokféle munkát, megbízást elvállal, de sokáig mindegyikre alkalmatlannak bizonyul. A házát 13 cégérrel díszíti, melyek egy-egy foglalkozást ábrázolnak. Író Romhányi József Rendező Imre István Hang Balázs Péter Szuhay Balázs Zeneszerző Ránki György Főszereplők Mekk Elek: Balázs Péter Flórián papagáj: Szuhay Balázs Epizódok A csodálatos asztalos Épületes eset Nyúlcipő Kinek lesz melege? A szamárkenyérfa Kutyalakzi Biztonsági berendezés A kútásó Macskazene Paci Manci frizurája A szélmolnár Az éléskamarások Helén divatot csinál [Hidden Content] [Hidden Content] [Hidden Content] [Hidden Content] [Hidden Content]
  20. 4 Blocks [720p x264 mkv - avi(xvid)] 01 (4.BLOCKS) német krimi-dráma, 50 perc 01.évad /01.- 06.rész/ 2017 ****kiegészítő felirat a csomagban**** BDRip.mkv.720p.x264.HunDub.2.0.AC3 vs. BDRip.XviD.HunDub.2.0.AC3 rendező: Özgür Yildirim, Marvin Kren, Oliver Hirschbiegel forgatókönyvíró: Hanno Hackfort, Bob Konrad, Richard Kropf operatőr: Timon Schäppi, Moritz Schultheiß, Matthias Bolliger zene: Stefan Will, Marco Dreckkötter, Peter Hinderthür díszlet: jelmez: Max Wohlkönig, Silke Faber látvány: Claus-Rudolf Amler producer: Marlene Beran, Quirin Berg, Christian Honeck vágó: Jan Hille, Lars Jordan, Sebastian Thümler szereplők: Kida Khodr Ramadan - Toni Almila Bagriacik - Amara Veysel Gelin - Abbas Frederick Lau - Vince Maryam Zaree - Kalila Oliver Masucci - Hagen Kutscha Sami Nasser - Kemal Rauand Taleb - Zeki Dirk Nocker - Georg Nickel Ludwig Trepte - Nico Wasiem Taha - Latif Frank Gerrish - Elvis Dalia Kaissi - W.Amara Raymond Tarabay - Ibrahim Hakeem A neuköllni arab bűnbanda vezetője, Ali "Toni" Hamady megígérte a feleségének, hogy jó útra tér, de ahogy azt sejtettük, ez nem megy olyan egyszerűen. Egy esztendővel a Cthulhu motoros bandával való összecsapás után sok változás történt Toni életében: Abbasz gyilkosság miatt bíróság elé került, Amara új életet kezd Latiffal, és Toni végre beléphet az ingatlanpiacra, amiről mindig is álmodott. A család befolyásának kiterjesztése azonban nemcsak a Kalilával való házasságát veszélyezteti, a konkurens bűnbanda, az erős al-Saafis sem akarja harc nélkül föladni a területét...... Videó információk:HD.mkv.720px264 Méret: 1.75 GB Hossz: 00:50:50 Típus: Matroska (MKV) Kódolás típusa: Advanced Video Codec (AVC) Formátum profil: High@L4.1 Felbontás: 1280 x 720 pixel Adatsebesség (Bitráta): 4 870 Kbps Képkockák száma/mp: 25.000 Oldalarány: 16 : 9 Audió információk: Audiósáv:#1 Language-Hungarian Audiósávok száma:1 Audiósáv típusa: AC3 Csatornák száma: 2 Adatsebesség (Bitráta): 192 Kbps CBR Mintavételezési frekvencia: 48.0 KHz Videó információk: Méret: 605 MB Hossz: 00:50:30 Típus: AVI (xvid - ) Felbontás: 720 x 406 pixel Bitráta: 1 498 Kbps Képkockák száma/mp: 25.000 Oldalarány: 16 : 9 Audió információk: Audiósávok száma: 1 Audiosáv: #1 Language-Hungarian Audiósáv típusa: AC3 Csatornák száma: 2 Bitráta: 192 Kbps CBR Mintavételezési frekvencia: 48.0 KHz Felirat: HUNGARY FORCED UTF-8 HD720p [Hidden Content] [Hidden Content] [Hidden Content] [Hidden Content] [Hidden Content] [Hidden Content] [Hidden Content] [Hidden Content] [Hidden Content] [Hidden Content] [Hidden Content] [Hidden Content] SD.AVI [Hidden Content] [Hidden Content] [Hidden Content] [Hidden Content] [Hidden Content] [Hidden Content] [Hidden Content] [Hidden Content] [Hidden Content] [Hidden Content] [Hidden Content] [Hidden Content] [Hidden Content] [Hidden Content] [Hidden Content] [Hidden Content] [Hidden Content] [Hidden Content] [Hidden Content] [Hidden Content] [Hidden Content] [Hidden Content] [Hidden Content] [Hidden Content]
  21. Éjszaka a Földön (Night on Earth) 2020.2160p.UHD.BluRay.6CH.x265.HunSub.CzSub magyar feliratos, angol természeti mini sorozat (6 részes), 58 perc, 1.7 Gb Miután a nap nyugovóra tér, a sötétség leple alatt tovább zajlik az élet. A technológiának köszönhetően most közelebbről is megnézhetjük, mi történik az állatvilágban, míg mi az igazak álmát alusszuk. Narrator: Samira Wiley [Hidden Content] [Hidden Content] [Hidden Content] [Hidden Content] [Hidden Content] [Hidden Content] [Hidden Content] [Hidden Content] [Hidden Content] [Hidden Content] [Hidden Content] [Hidden Content] [Hidden Content] [Hidden Content] [Hidden Content] [Hidden Content] [Hidden Content] [Hidden Content] [Hidden Content] [Hidden Content] [Hidden Content] [Hidden Content] [Hidden Content] [Hidden Content] [Hidden Content] [Hidden Content] [Hidden Content] [Hidden Content] [Hidden Content] [Hidden Content] [Hidden Content] [Hidden Content] [Hidden Content] [Hidden Content] [Hidden Content] [Hidden Content] [Hidden Content] [Hidden Content] [Hidden Content] [Hidden Content] [Hidden Content] [Hidden Content] [Hidden Content] [Hidden Content] [Hidden Content] [Hidden Content] [Hidden Content] [Hidden Content] [Hidden Content] [Hidden Content]
  22. Téboly (Unhinged) 2020.1080p.10bit.WEB-DL.AC3.6CH.x265 szinkronizált, amerikai thriller, 86 perc, 1.3 Gb Veled is szembejöhet a legrosszabb rémálmod… Rachel (Caren Pistorius) a reggeli rohanásban, a végeláthatatlan dugóban ülve ledudál egy idegent (Russell Crowe), és elhajt mellette. A férfi ettől hirtelen bekattan, és egy halálos országúti bosszúhadjáratba kezd. Üldözőbe veszi a nőt, akit pokoli leckék végtelen során keresztül próbál teljesen kikészíteni. A tébolyult ámokfutó nem kímél senkit, aki az útjába kerül… RENDEZŐ: Derrick Borte ÍRÓ: Carl Ellsworth ZENE: David Buckley SZEREPLŐK: Russell Crowe, Jimmi Simpson, Gabriel Bateman, Caren Pistorius, Austin P. McKenzie, Michael Papajohn, Gretchen Koerner Video ID : 1 Format : HEVC Format/Info : High Efficiency Video Coding Format profile : Main 10@L5.1@High Codec ID : V_MPEGH/ISO/HEVC Duration : 1 h 26 min Bit rate : 1 555 kb/s Width : 1 920 pixels Height : 800 pixels Display aspect ratio : 2.40:1 Frame rate mode : Constant Frame rate : 25.000 FPS Color space : YUV Chroma subsampling : 4:2:0 Bit depth : 10 bits Bits/(Pixel*Frame) : 0.040 Stream size : 963 MiB (78%) Default : Yes Forced : No Color range : Limited Color primaries : BT.709 Transfer characteristics : BT.709 Matrix coefficients : BT.709 Audio ID : 2 Format : AC-3 Format/Info : Audio Coding 3 Commercial name : Dolby Digital Codec ID : A_AC3 Duration : 1 h 26 min Bit rate mode : Constant Bit rate : 448 kb/s Channel(s) : 6 channels Channel layout : L R C LFE Ls Rs Sampling rate : 48.0 kHz Frame rate : 31.250 FPS (1536 SPF) Compression mode : Lossy Stream size : 277 MiB (22%) Language : Hungarian Service kind : Complete Main Default : Yes Forced : No [Hidden Content] [Hidden Content] [Hidden Content] [Hidden Content] [Hidden Content] [Hidden Content] [Hidden Content]
  23. Trónok harca (Game of Thrones) 2011-.2160p.HDR10+.BluRay.x265 1. évad 1.-2. rész szinkronizált, amerikai kaland, fantasy, drámasorozat, 55 perc, 1.6 Gb Westeros királyság északi határát hatalmas jeges fal választja el az örök tél birodalmától. Lord Eddard "Ned" Stark az északi birodalom, Deres (Winterfell) ura és az északi nemesek vezére, az ő ősei építették a Falat, amelyet az Éjjeli Őrség véd. Amikor Robert király tanácsadója és Ned mentora, Jon Arryn meghal, Robert Baratheon a barátját, Nedet kéri fel, hogy lépjen a helyébe. Eközben a régi uralkodóház, a Targaryenek utolsó leszármazottja, Viserys azt tervezi, hogy visszaszerzi a trónt. Szövetséget köt a nomád dothraki harcosokkal, és vezérüknek, Khal Drogónak adja a húga, Daenerys kezét. Baratheon király és a felesége, a Lannister-házbeli Cersei királyné Deresbe utazik. Velük tart a Lannister família több tagja: a királyné ikertestvére, Jaime, a másik testvére, a törpe Tyrion, illetve a királyné tizenkét éves fia, a trón örököse, Joffrey. Ned nem utasíthatja vissza öreg királya és barátja kérését, így a birodalom fővárosába készül. Mindeközben Havas Jon elhatározza, hogy északra utazik a Fekete Kastélyba, hogy csatlakozzon az Éjjeli Őrséghez, ahová a kíváncsi Tyrion is elkíséri. De az ifjú Bran sötét titokra bukkan, ami nem várt következményekkel jár... RENDEZŐ: David Nutter, Alan Taylor, Alex Graves FORGATÓKÖNYVÍRÓ: David Benioff, George R. R. Martin, D. B. Weiss, Dave Hill ZENE: Ramin Djawadi SZEREPLŐK: Peter Dinklage, Emilia Clarke, Kit Harington, Sean Bean, Lena Headey, Sophie Turner, Jason Momoa 1. évad [Hidden Content] [Hidden Content] [Hidden Content] [Hidden Content] [Hidden Content] [Hidden Content] [Hidden Content] [Hidden Content] [Hidden Content] [Hidden Content] [Hidden Content] [Hidden Content] [Hidden Content] [Hidden Content] [Hidden Content] [Hidden Content] [Hidden Content] [Hidden Content] [Hidden Content] [Hidden Content] [Hidden Content] [Hidden Content] [Hidden Content] [Hidden Content] [Hidden Content] [Hidden Content] [Hidden Content] [Hidden Content] [Hidden Content] [Hidden Content] [Hidden Content] [Hidden Content] [Hidden Content] [Hidden Content] [Hidden Content] [Hidden Content] [Hidden Content] [Hidden Content] [Hidden Content] [Hidden Content] [Hidden Content] [Hidden Content] [Hidden Content] [Hidden Content] [Hidden Content] [Hidden Content] [Hidden Content] [Hidden Content] [Hidden Content] [Hidden Content] [Hidden Content] [Hidden Content] [Hidden Content] [Hidden Content] [Hidden Content] [Hidden Content] [Hidden Content] [Hidden Content] [Hidden Content] [Hidden Content] [Hidden Content] [Hidden Content] [Hidden Content] [Hidden Content] [Hidden Content] [Hidden Content] [Hidden Content] [Hidden Content] [Hidden Content] [Hidden Content] [Hidden Content] [Hidden Content] [Hidden Content] [Hidden Content] [Hidden Content] [Hidden Content] [Hidden Content] 2. évad [Hidden Content] [Hidden Content] [Hidden Content] [Hidden Content] [Hidden Content] [Hidden Content] [Hidden Content] [Hidden Content] [Hidden Content] [Hidden Content] [Hidden Content] [Hidden Content] [Hidden Content] [Hidden Content] [Hidden Content] [Hidden Content] [Hidden Content] [Hidden Content] [Hidden Content] [Hidden Content] [Hidden Content] [Hidden Content] [Hidden Content] [Hidden Content] [Hidden Content] [Hidden Content] [Hidden Content] [Hidden Content] [Hidden Content] [Hidden Content] [Hidden Content] [Hidden Content] [Hidden Content] [Hidden Content] [Hidden Content] [Hidden Content] [Hidden Content] [Hidden Content] [Hidden Content] [Hidden Content] [Hidden Content] [Hidden Content] [Hidden Content] [Hidden Content] [Hidden Content] [Hidden Content] [Hidden Content] [Hidden Content] [Hidden Content] [Hidden Content] [Hidden Content] [Hidden Content] [Hidden Content] [Hidden Content] [Hidden Content] [Hidden Content] [Hidden Content] [Hidden Content] [Hidden Content] [Hidden Content] [Hidden Content] [Hidden Content] [Hidden Content] [Hidden Content] [Hidden Content] [Hidden Content] [Hidden Content] [Hidden Content] [Hidden Content] [Hidden Content] [Hidden Content] [Hidden Content] [Hidden Content] [Hidden Content] [Hidden Content] [Hidden Content] [Hidden Content] [Hidden Content] [Hidden Content] [Hidden Content] [Hidden Content] [Hidden Content] [Hidden Content] [Hidden Content] [Hidden Content] 3. évad [Hidden Content] [Hidden Content] [Hidden Content] [Hidden Content] [Hidden Content] [Hidden Content] [Hidden Content] [Hidden Content] [Hidden Content] [Hidden Content] [Hidden Content] [Hidden Content] [Hidden Content] [Hidden Content] [Hidden Content] [Hidden Content] [Hidden Content] [Hidden Content] [Hidden Content] [Hidden Content] [Hidden Content] [Hidden Content] [Hidden Content] [Hidden Content] [Hidden Content] [Hidden Content] [Hidden Content] [Hidden Content] [Hidden Content] [Hidden Content] [Hidden Content] [Hidden Content] [Hidden Content] [Hidden Content] [Hidden Content] [Hidden Content] [Hidden Content] [Hidden Content] [Hidden Content] [Hidden Content] [Hidden Content] [Hidden Content] [Hidden Content] [Hidden Content] [Hidden Content] [Hidden Content] [Hidden Content] [Hidden Content] [Hidden Content] [Hidden Content] [Hidden Content] [Hidden Content] [Hidden Content] [Hidden Content] [Hidden Content] [Hidden Content] [Hidden Content] [Hidden Content] [Hidden Content] [Hidden Content] [Hidden Content] [Hidden Content] [Hidden Content] [Hidden Content] [Hidden Content] [Hidden Content] [Hidden Content] [Hidden Content] [Hidden Content] [Hidden Content] [Hidden Content] [Hidden Content] [Hidden Content] [Hidden Content] [Hidden Content] [Hidden Content] [Hidden Content] [Hidden Content] [Hidden Content] [Hidden Content] [Hidden Content] [Hidden Content] [Hidden Content] [Hidden Content] [Hidden Content] [Hidden Content] [Hidden Content] [Hidden Content] [Hidden Content] 4. évad [Hidden Content] [Hidden Content] [Hidden Content] [Hidden Content] [Hidden Content] [Hidden Content] [Hidden Content] [Hidden Content] [Hidden Content] [Hidden Content] [Hidden Content] [Hidden Content] [Hidden Content] [Hidden Content] [Hidden Content] [Hidden Content] [Hidden Content] [Hidden Content] [Hidden Content] [Hidden Content] [Hidden Content] [Hidden Content] [Hidden Content] [Hidden Content] [Hidden Content] [Hidden Content] [Hidden Content] [Hidden Content] [Hidden Content] [Hidden Content] [Hidden Content] [Hidden Content] [Hidden Content] [Hidden Content] [Hidden Content] [Hidden Content] [Hidden Content] [Hidden Content] [Hidden Content] [Hidden Content] [Hidden Content] [Hidden Content] [Hidden Content] [Hidden Content] [Hidden Content] [Hidden Content] [Hidden Content] [Hidden Content] [Hidden Content] [Hidden Content] [Hidden Content] [Hidden Content] [Hidden Content] [Hidden Content] [Hidden Content] [Hidden Content] [Hidden Content] [Hidden Content] [Hidden Content] [Hidden Content] [Hidden Content] [Hidden Content] [Hidden Content] [Hidden Content] [Hidden Content] [Hidden Content] [Hidden Content] [Hidden Content] [Hidden Content] [Hidden Content] [Hidden Content] [Hidden Content] [Hidden Content] [Hidden Content] [Hidden Content] [Hidden Content] [Hidden Content] [Hidden Content] [Hidden Content] [Hidden Content] [Hidden Content] [Hidden Content] [Hidden Content] [Hidden Content] [Hidden Content] [Hidden Content] [Hidden Content] [Hidden Content] 5. évad [Hidden Content] [Hidden Content] [Hidden Content] [Hidden Content] [Hidden Content] [Hidden Content] [Hidden Content] [Hidden Content] [Hidden Content] [Hidden Content] [Hidden Content] [Hidden Content] [Hidden Content] [Hidden Content] [Hidden Content] [Hidden Content] [Hidden Content] [Hidden Content] [Hidden Content] [Hidden Content] [Hidden Content] [Hidden Content] [Hidden Content] [Hidden Content] [Hidden Content] [Hidden Content] [Hidden Content] [Hidden Content] [Hidden Content] [Hidden Content] [Hidden Content] [Hidden Content] [Hidden Content] [Hidden Content] [Hidden Content] [Hidden Content] [Hidden Content] [Hidden Content] [Hidden Content] [Hidden Content] [Hidden Content] [Hidden Content] [Hidden Content] [Hidden Content] [Hidden Content] [Hidden Content] [Hidden Content] [Hidden Content] [Hidden Content] [Hidden Content] [Hidden Content] [Hidden Content] [Hidden Content] [Hidden Content] [Hidden Content] [Hidden Content] [Hidden Content] [Hidden Content] [Hidden Content] [Hidden Content] [Hidden Content] [Hidden Content] [Hidden Content] [Hidden Content] [Hidden Content] [Hidden Content] [Hidden Content] [Hidden Content] [Hidden Content] [Hidden Content] [Hidden Content] [Hidden Content] [Hidden Content] [Hidden Content] [Hidden Content] [Hidden Content] [Hidden Content] [Hidden Content] [Hidden Content] [Hidden Content] [Hidden Content] [Hidden Content] [Hidden Content] [Hidden Content] [Hidden Content] [Hidden Content] [Hidden Content] [Hidden Content] [Hidden Content] [Hidden Content]
  24. Ásatás (The Dig) 2021.1080p.10bit.WEBRip.6CH.x265.HunSub magyar feliratos, angol életrajzi dráma, történelmi film, 112 perc, 1.9 gb Miközben gyülekeznek a második világháború viharfelhői, egy tehetős özvegyasszony (Carey Mulligan) megbíz egy amatőr régészt (Ralph Fiennes), hogy ássa ki a birtokán található sírhalmokat. Amikor történelmi felfedezést tesznek, visszaköszönnek Nagy-Britannia múltjának visszhangjai a bizonytalan jövő előtt áll‎ó országban. RENDEZŐ: Simon Stone ÍRÓ: John Preston FORGATÓKÖNYVÍRÓ: Moira Buffini ZENE: Stefan Gregory SZEREPLŐK: Ralph Fiennes, Carey Mulligan, Lily James, Johnny Flynn, Ben Chaplin, Eamon Farren, Ken Stott, Arsher Ali, Joe Hurst [Hidden Content] [Hidden Content] [Hidden Content] [Hidden Content] [Hidden Content] [Hidden Content] [Hidden Content] [Hidden Content] [Hidden Content]
  25. FBI: A legkeresettebbek [480p x264 mkv] 01 (feliratos) (FBI:Most Wanted) angol nyelvű amerikai akció-krimi-dráma, 45 perc 01.évad /01.- 14.rész/ 2020 WEB-DL.mkv.480p.x264.EngDub-HunSub (magyar felirat a csomagban) rendező: Fred Berner, Jim McKay, Ken Girotti forgatókönyvíró: Rene Balcer, Craig Turk, Dick Wolf operatőr: Ludovic Littee, Manuel Billeter zene: Atli Örvarsson díszlet: Tora Peterson, Carrie Stewart jelmez: Hannah Hogan, Rebecca Hofherr látvány: Halina Gebarowicz, Charley Beal producer: Thomas Sellitti Jr., Terrell Clegg, Dick Wolf vágó: Terrell Clegg, Mitchell Danton szereplők: Julian McMahon - Jess LaCroix Kellan Lutz - Kenny Crosby Roxy Sternberg - Sheryll Barnes Keisha Castle-Hughes - Hana Gibson YaYa Gosselin - Tali LaCroix Nathaniel Arcand - Clinton Skye Irene Bedard - Marilou Skye Lorne Cardinal - Nelson Skye Alana De La Garza - Isobel Castille Terry O'Quinn - Byron LaCroix Fedna Jacquet - Charlotte Gaines Rachel York - Marie Smith Jason Tam - Bobby Kao Az FBI körözési toplistáján levő kiemelt bűnözők elkapásával foglalkozó osztály, a Fugitive Task Force munkájáról szól a sorozat, a törvény elől menekülők kézre kerítésével........ Videó információk:mkv.480px264 Méret: 415 MB Hossz: 00:43:25 Típus: Matroska (MKV) Kódolás típusa: Advanced Video Codec (AVC) Formátum profil: High@L3.1 Felbontás: 720 x 400 pixel Adatsebesség (Bitráta): 1 120 Kbps Képkockák száma/mp: 24.000 Oldalarány: 16 : 9 Audió információk: Audiósáv:#1 Language-English Audiósávok száma:1 Audiósáv típusa: AAC (LC) Csatornák száma: 2 Adatsebesség (Bitráta): 256 Kbps CBR Mintavételezési frekvencia: 48.0 KHz Felirat: FULL HUNGARIAN UTF-8 [Hidden Content] [Hidden Content] [Hidden Content] [Hidden Content] [Hidden Content] [Hidden Content] [Hidden Content] [Hidden Content] [Hidden Content] [Hidden Content] [Hidden Content] [Hidden Content] [Hidden Content] [Hidden Content] [Hidden Content] [Hidden Content] [Hidden Content] [Hidden Content] [Hidden Content] [Hidden Content] [Hidden Content] [Hidden Content] [Hidden Content] [Hidden Content] [Hidden Content] [Hidden Content] [Hidden Content] [Hidden Content] [Hidden Content] [Hidden Content] [Hidden Content] [Hidden Content] [Hidden Content] [Hidden Content] [Hidden Content] [Hidden Content] [Hidden Content] [Hidden Content] [Hidden Content] [Hidden Content] [Hidden Content] [Hidden Content]
×