Jump to content
PirateClub.hu

Riothamus

Törzstag
  • Content Count

    17
  • Joined

  • Last visited

Community Reputation

18 Semleges

About Riothamus

  • Rank
    Pelenkás Bajkeverő

Profile Information

  • Neme
    Férfi

Recent Profile Visitors

283 profile views
  1. Riothamus

    Magyar és külföldi tracker infók!

    AvistaZ free reg. 2016.11.15 - 2016.11.30-ig [Hidden Content]
  2. Teo 1. évad (Teo) (1996-) színes, szinkronizált spanyol rajzfilmsorozat Társproducer: Jose Manuel Iglesias A sorozatot televízióra alkalmazta: Claudio Biern Boyd Tartalom: Ez egy oktató és szórakoztató rajzfilmsorozat a legkisebbek számára (2-7 éves korig) amely Violeta Denou híres könyvsorozata a "Teo descubre el mundo" (Teo felfedezi a világot) alapján készült. Mintaképek: Technikai információk: Format : Matroska Format version : Version 2 File size : 97.4 MiB Duration : 7mn 19s Overall bit rate : 1 861 Kbps Writing application : Lavf54.63.104 Writing library : Lavf54.63.104 Video ID : 1 Format : AVC Format/Info : Advanced Video Codec Format profile : Main@L3.0 Format settings, CABAC : Yes Format settings, ReFrames : 1 frame Codec ID : V_MPEG4/ISO/AVC Duration : 7mn 19s Bit rate : 1 632 Kbps Width : 640 pixels Height : 480 pixels Display aspect ratio : 4:3 Frame rate mode : Constant Frame rate : 25.000 fps Color space : YUV Chroma subsampling : 4:2:0 Bit depth : 8 bits Scan type : Progressive Bits/(Pixel*Frame) : 0.213 Stream size : 83.8 MiB (86%) Writing library : x264 core 129 Encoding settings : cabac=1 / ref=1 / deblock=1:0:0 / analyse=0x1:0x131 / me=dia / subme=2 / psy=1 / psy_rd=1.00:0.00 / mixed_ref=0 / me_range=16 / chroma_me=1 / trellis=0 / 8x8dct=0 / cqm=0 / deadzone=21,11 / fast_pskip=1 / chroma_qp_offset=0 / threads=1 / lookahead_threads=1 / sliced_threads=0 / nr=0 / decimate=1 / interlaced=0 / bluray_compat=0 / constrained_intra=0 / bframes=0 / weightp=2 / keyint=250 / keyint_min=25 / scenecut=40 / intra_refresh=0 / rc_lookahead=40 / rc=abr / mbtree=1 / bitrate=1632 / ratetol=1.0 / qcomp=0.60 / qpmin=10 / qpmax=51 / qpstep=4 / ip_ratio=1.41 / aq=1:1.00 Default : Yes Forced : No Audio ID : 2 Format : AC-3 Format/Info : Audio Coding 3 Mode extension : CM (complete main) Format settings, Endianness : Big Codec ID : A_AC3 Duration : 7mn 19s Bit rate mode : Constant Bit rate : 224 Kbps Channel(s) : 2 channels Channel positions : Front: L R Sampling rate : 48.0 KHz Bit depth : 16 bits Compression mode : Lossy Stream size : 11.7 MiB (12%) Default : Yes Forced : No Letöltés: 14 Teo en un día de fiesta/Teo On A Public Holiday Teo_S01E14_HunDub.mkv 97.4 MB [Hidden Content] vagy [Hidden Content] 15 Teo juega al aire libre/Teo Plays In A Country Teo_S01E15_HunDub.mkv 96.9 MB [Hidden Content] vagy [Hidden Content] 17 Pablo va parvulario/Paul Goes To Nursery School Teo_S01E17_HunDub.mkv 97.9 MB [Hidden Content] vagy [Hidden Content] 18 Puc visita al veterinario/Puck Visits The Vet Teo_S01E18_HunDub.mkv 97.9 MB [Hidden Content] vagy [Hidden Content] 22 Teo visita el zoo/Teo Visits The Zoo Teo_S01E22_HunDub.mkv 97.3 MB [Hidden Content] vagy [Hidden Content] 24 Teo se viste/Teo Gets Dressed By Himself Teo_S01E24_HunDub.mkv 91.5 MB [Hidden Content] vagy [Hidden Content] 25 Teo va al teatro/Teo Goes To The Theatre Teo_S01E25_HunDub.mkv 97.9 MB [Hidden Content] vagy [Hidden Content] 26 Teo y los alimentos/Teo Learns About Food Teo_S01E26_HunDub.mkv 98.5 MB [Hidden Content] vagy [Hidden Content] 27 Teo va al supermercado/Teo Goes To The Market Teo_S01E27_HunDub.mkv 97.5 MB [Hidden Content] vagy [Hidden Content] 28 Teo visita una granja/Teo In The Kitchen Teo_S01E28_HunDub.mkv 96.4 MB [Hidden Content] vagy [Hidden Content] 29 Teo ayuda a mamá en la cocina/Teo Visits A Farm Teo_S01E29_HunDub.mkv 98.1 MB [Hidden Content] vagy [Hidden Content] 30 Teo come en el campo/Teo Goes On A Picnic Teo_S01E30_HunDub.mkv 90.9 MB [Hidden Content] vagy [Hidden Content] Az 1. évad 30 részes, ebből csak ennyit sikerült rögzítenem a TV2-ről.
  3. A TV2 tavaly újból leadta az egész sorozatot. A 2. és a 6-26. részek hozzáadva, így teljes a sorozat.
  4. Stuart Little, kisegér (Stuart Little) 2003 1. évad DVBRip színes, szinkronizált, amerikai animációs sorozat Tartalom: A történet főhőse Stuart, aki egy repülőgép-vezető kisegér. A Little család mióta örökbe fogadta, azóta együtt él velük. George Little-el közösen, gyakran valami tudományos dolgokkal kísérleteznek. A család együtt utazik is és izgalmas helyeket néz meg. Szereplők: Stuart Little – A történet egér főhőse, aki jól vezet repülőt. Mr. Frederick Little – a családfő Mrs. Eleanor Little – Frederick felesége George Little – Frederick és Eleanor fia, aki nehezen fogadta örökbe Stuartot, de összetartó társakká válnak. Martha Little – George húga, aki folyton Hómancsot macerálja azzal, hogy rózsaszínű ruhákba öltözteti, simogatja, puszilgatja, ezért Hómancs bosszúból Frankenstein bébinek nevezi. Hómancs (Snowbell) – A Little család hófehér bundájú, kövér, lusta, falánk macskája. Monty – A környékbeli, sovány, gyors, ügyes macska. Rick Ruckus – George barátja az iskolában. Margalo – Sárga madár, Stuart társa. Sólyom (Falcon) – Sólyom, Stuart Little régi ellensége. A varjak (The Crows) – A sólyom újonctársai, akik segítenek a küldetésében, hogy legyőzze Stuartot, és a barátait. Epizódok: 1.: A fasírttolvaj 2.: Száguldj, George! 3.: A kis nagy csapat 4.: Fej vagy írás 5.: A nagy kirándulás 6.: Válaszd Stuartot! 7.: A nagy rekordkísérlet 8.: Szellemes vakáció 9.: Vidéki kaland 10.: Puskalábú kisegér 11.: Egérmeló 12.: Egy kis házimunka 13.: Verseny a javából Kép és hang: TVRip (TV2) Mintaképek: Tech. Info.: Matroska, 297 MiB, 21mn 21s, Writing application: Lavf54.63.104 Writing library: Lavf54.63.104 Video: 1750 Kbps, 688x512 (4:3), at 25.000 fps, AVC (Main@L3.0)(CABAC/1 Ref Frames) Audio: 224 Kbps, 48.0 KHz, 16 bits, 2 channels, AC-3 1. évad letöltése: 1. rész A fasírttolvaj [Hidden Content] 2. rész Száguldj, George! [Hidden Content] 3. rész A kis nagy csapat [Hidden Content] 4. rész Fej vagy írás [Hidden Content] 5. rész A nagy kirándulás [Hidden Content] 6. rész Válaszd Stuartot! [Hidden Content] 7. rész A nagy rekordkísérlet [Hidden Content] 8. rész Szellemes vakáció [Hidden Content] 9. rész Vidéki kaland [Hidden Content] 10. rész Puskalábú kisegér [Hidden Content] 11. rész Egérmeló [Hidden Content] 12. rész Egy kis házimunka [Hidden Content] 13. rész Verseny a javából [Hidden Content]
  5. 1001 amerikai (Las mil y una... Américas) 1. évad 1989-1991 színes, szinkronizált spanyol rajzfilmsorozat Írta és Rendezte: Claudio Biern Boyd Tartalom: A sorozat főhőse: egy 10 éves fiú, akinek neve: Chris. A fiú sok kalandban vesz részt. Az a vágya, hogy eljusson Amerikába. Vele tart a sárgás színű kutyája is, akinek neve Lon. Minden új kalandjuk elképesztő. Chris nagyapja padlásán kutat és egyszer csak rátalál egy régi könyvre, amit még nagyapja hozott magával az útjai során. Ezt a régi könyvet, Chris izgatottan olvassa. Ez a könyv leírja Amerikának történetét Christopher Colombus felfedezésének idejéről. Chris, Amerika őslakosairól is olvas. A képzeletbeli kalandjuk igazán érdekesen kezdődik. A könyvet olvasva Chris Amerikának különböző részeit, nemzeteit és történelmi eseményeit ismeri meg. Jól megismerik Amerika őslakosait és régen élt állatait. Miután Chris kiolvassa a könyvet, sokat mesél Amerikáról lánybarátjának is Monika-nak, elmeséli mit tapasztalt meg Lon-al Amerikáról. Mintaképek: Technikai információk: AVI, 320 MB, 24mn 40s Video: 1608 Kbps, 640x480 (4:3), at 25.000 fps, xvid Audio: 192 Kbps, 48.0 KHz, 16 bits, 2 channels, AC-3 Letöltés: 1001.amerikai.S01E01.DVBRip.XviD.avi 319.7 MB [Hidden Content] 1001.Amerikai.S01E02.DVBRip.XviD.avi 329.0 MB [Hidden Content] 1001.amerikai.S01E03.DVBRip.XviD.avi 317.0 MB [Hidden Content] 1001.amerikai.S01E04.DVBRip.XviD.avi 336.2 MB [Hidden Content] 1001.amerikai.S01E05.DVBRip.XviD.avi 327.3 MB [Hidden Content] 1001.Amerikai.S01E06.DVBRip.XviD.avi 330.3 MB [Hidden Content] 1001.Amerikai.S01E07.DVBRip.XviD.avi 326.2 MB [Hidden Content] 1001.Amerikai.S01E08.DVBRip.XviD.avi 332.0 MB [Hidden Content] 1001.Amerikai.S01E09.DVBRip.XviD.avi 325.6 MB [Hidden Content] 1001.Amerikai.S01E10.DVBRip.XviD.avi 316.3 MB [Hidden Content] 1001.Amerikai.S01E11.DVBRip.XviD.avi 320.0 MB [Hidden Content] 1001.Amerikai.S01E12.DVBRip.XviD.avi 334.5 MB [Hidden Content] 1001.Amerikai.S01E13.DVBRip.XviD.avi 321.5 MB [Hidden Content] 1001.Amerikai.S01E14.DVBRip.XviD.avi 326.6 MB [Hidden Content] 1001.Amerikai.S01E15.DVBRip.XviD.avi 334.0 MB [Hidden Content] 1001.Amerikai.S01E16.DVBRip.XviD.avi 325.6 MB [Hidden Content] 1001.Amerikai.S01E17.part1.DVBRip.XviD.avi 117.9 MB [Hidden Content] 1001.Amerikai.S01E17.part2.DVBRip.XviD.avi 212.0 MB [Hidden Content] 1001.Amerikai.S01E18.DVBRip.XviD.avi 331.5 MB [Hidden Content] 1001.Amerikai.S01E19.DVBRip.XviD.avi 320.0 MB [Hidden Content] 1001.Amerikai.S01E20.DVBRip.XviD.avi 333.6 MB [Hidden Content] 1001.Amerikai.S01E21.DVBRip.XviD.avi 313.3 MB [Hidden Content] 1001.Amerikai.S01E22.DVBRip.XviD.avi 324.6 MB [Hidden Content] 1001.Amerikai.S01E23.DVBRip.XviD.avi 324.0 MB [Hidden Content] 1001.Amerikai.S01E24.DVBRip.XviD.avi 327.2 MB [Hidden Content] 1001.Amerikai.S01E25.DVBRip.XviD.avi 327.5 MB [Hidden Content] 1001.Amerikai.S01E26.DVBRip.XviD.avi 324.7 MB [Hidden Content]
  6. A jég fogságában (Le Piège blanc aka Ice Trap) színes, szinkronizált, francia ismeretterjesztő filmsorozat, 2013 Rendező: Thierry Robert Szereplők: Alban Michon és Vincent Berthet Infók a filmről: allocine, CSFD, kwanza Tartalom: Két kalandor két hónapja az északi sarkvidéken. A film egy lenyűgöző expedíciót követ végig, melynek során a felfedezők kajakkal járják be a legeldugottabb fjordokat, és hatalmas tengeri emlősök társaságában merülnek a jéghideg tengerben. Az időjárás egyre rosszabbra fordul, a 200 kilométeres szél és a feltorlódó jégtáblák nem akármilyen próbatétel elé állítják az utazókat. Vajon ilyen körülmények között is sikerül elérniük az expedíció célállomását? Mintaképek: Technikai Információk: Matroska, 338 MB, 25mn 2s Video: 1685 Kbps, 720x404 (16:9), at 25.000 fps, AVC (Main@L3.0) (CABAC/1 Ref Frames) Audio: 192 Kbps, 48.0 KHz, 16 bits, 2 channels, AC-3 Letöltés: 1. rész - Fjordok hátán Ice.Trap.S01E01.DVBRip.h264.AC3.Hun.mkv 337.8 MB [Hidden Content] 2. rész - Medvetánc Ice.Trap.S01E02.DVBRip.h264.AC3.Hun.mkv 356.1 MB [Hidden Content] 3. rész - Álmatlanul Ice.Trap.S01E03.DVBRip.h264.AC3.Hun.mkv 344.0 MB [Hidden Content] 4. rész - Beköszönt a tél Ice.Trap.S01E04.DVBRip.h264.AC3.Hun.mkv 347.5 MB [Hidden Content] 5. rész - Szorul a hurok Ice.Trap.S01E05.DVBRip.h264.AC3.Hun.mkv 355.4 MB [Hidden Content]
  7. A neretvai csata (Bitka na Neretvi) (1969) színes, feliratos, jugoszláv-olasz-NSZK-amerikai-angol háborús filmdráma rendező: Veljko Bulajić forgatókönyvíró: Veljko Bulajić, Ugo Pirro, Stevan Bulajić, Ratko Đurović zeneszerző: Bernard Herrmann, Vladimir Kraus-Rajterić operatőr: Tomislav Pinter vágó: Roberto Perpignani, Vojislav Bjenjaš szereplő(k): Curd Jürgens (Lohring tábornok) Ljubiša Samardžić (Novak, a partizán) Sylva Koscina (Danica) Franco Nero (Riva) Orson Welles (Szenátor) Milena Dravić (Nada) Yul Brynner (Vlado) Tartalom: 1943 elején a bosnyák hegyek között vívták legnagyobb csatájukat a jugoszláv partizánok az egyesített német-olasz csapatokkal, amelyek igen nagy erővel vonultak fel és bekerítették őket. A rendkívül hosszú, súlyos küzdelem után az ellenséget egy csellel félrevezetve sikerült kitörniük a gyűrűből és megőrizni erőiket. Mindezt nagyon látványosan, valóságos sztárparádéval állítja a néző elé ez az "Európa legdrágább filmjeként" hirdetett, két esztendőn át forgatott szuperprodukció, mely az emberi arcok felvillantásával, a küzdelem kegyetlenségének ábrázolásával lemond az e témakörben oly gyakori lakkozásról. Ezáltal némiképpen adalékul szolgál mindahhoz, ami a jelenlegi háborúban is tapasztalható. Technikai információk: Fájl: Bitka.Na.Neretvi-DVDRip.XviD1.12-Mage.avi Méret: 1.37 GiB Játékidő: 2óra 45perc Nyelv (audio): Szerbhorvát Felirat: Magyar (softsubbed) Video: 1037 Kbps, 640x320 (2.000), at 25.000 fps, MPEG-4 Visual (XviD)(Packed bitstream)(Advanced Simple@L5)(BVOP2) Audio: 128 Kbps, 48.0 KHz, 2 channels, MPEG Audio (MP3)(Version 1)(Layer 3)(Joint stereo / MS Stereo) Letöltés: [Hidden Content]
  8. Hachiko Monogatari (1987) színes, feliratos japán családi film Szereplők: Cast: Chisako Hara, Masumi Harukawa, Ben Hiura, Hisashi Igawa, Shigeru Izumiya, Hairi Katagiri, Tokiko Kato, Yoshi Kato, Shirô Kishibe, Norihei Miki Tartalom: A kutya az Akita prefektúrabeli Ódate melletti farmon született 1923. november 10-én és a prefektúra nevét is viselő fajtából való. 1924-ben Hachikót gazdája, Hidesaburó Ueno, a Tokiói Egyetem mezőgazdasági tanszék professzora Tokióba vitte magával munkája miatt. A professzor odaadó barátja minden nap végén a közeli Shibuya állomoshoz ment, hogy a hazatérő gazdáját fogadja. Hachikó ezt több, mint egy évig, az év összes munkanapján megtette, míg egyik este a professzor nem jött haza a megszokott vonattal... Technikai információk: Fájl: Hachiko.Monogatari.1987.DVDRip.XviD-WRD.avi Méret: 699 MB (733.720.576 bytes) Játékidő: 1:47:23 Nyelv (audio): Japán Felirat: Magyar (softsubbed) Video: 760 Kbps, 592x336 (16:9), at 23.976 fps, MPEG-4 Visual (XviD) (Advanced Simple@L5) Audio: 138 Kbps (128 Kbps), 48.0 KHz, 2 channels, MPEG Audio(MP3)(Version 1)(Layer 3)(Joint Stereo / MS Stereo) Letöltés: [Hidden Content]
  9. Zsebkutyusok 1. évad (Cuccioli cerca amici – Nel regno di Pocketville) 2010 - 2011 színes, szinkronizált olasz animációs sorozat WEB-DL x264 360p Rendező Orlando Corradi Író(k) Francesco Balletta Valerio Cilio Simona Lombardi Hang(ok) Mark Hanna Katie McGovern Robert Steiner Helena Bonham Carter Tartalom: Népszerű játékokon alapuló sorozat a gyerekek és a varázslatos apró méretű kiskutyák közötti nagyszerű barátságról. Technikai információk: Format : MPEG-4 Format profile : Base Media / Version 2 Codec ID : mp42 File size : 167 MiB Duration : 25mn 10s Overall bit rate mode : Variable Overall bit rate : 926 Kbps Encoded date : UTC 2014-09-05 12:45:28 Tagged date : UTC 2014-09-05 12:45:28 Video ID : 1 Format : AVC Format/Info : Advanced Video Codec Format profile : Baseline@L3.0 Format settings, CABAC : No Format settings, ReFrames : 2 frames Codec ID : avc1 Codec ID/Info : Advanced Video Coding Duration : 25mn 10s Bit rate mode : Variable Bit rate : 798 Kbps Maximum bit rate : 1 600 Kbps Width : 640 pixels Height : 360 pixels Display aspect ratio : 16:9 Frame rate mode : Constant Frame rate : 25.000 fps Standard : PAL Color space : YUV Chroma subsampling : 4:2:0 Bit depth : 8 bits Scan type : Progressive Bits/(Pixel*Frame) : 0.139 Stream size : 144 MiB (86%) Language : English Encoded date : UTC 2014-09-05 13:07:05 Tagged date : UTC 2014-09-05 13:07:05 Audio ID : 2 Format : AAC Format/Info : Advanced Audio Codec Format profile : LC Codec ID : 40 Duration : 25mn 10s Bit rate mode : Variable Bit rate : 125 Kbps Maximum bit rate : 164 Kbps Channel(s) : 2 channels Channel positions : Front: L R Sampling rate : 48.0 KHz Compression mode : Lossy Stream size : 22.6 MiB (14%) Language : English Encoded date : UTC 2014-09-05 13:07:06 Tagged date : UTC 2014-09-05 13:07:06 1. évad (1-52. rész) Letöltése: [Hidden Content] [Hidden Content] [Hidden Content] [Hidden Content] [Hidden Content] [Hidden Content] [Hidden Content] [Hidden Content] [Hidden Content] [Hidden Content] [Hidden Content] [Hidden Content] [Hidden Content] [Hidden Content] [Hidden Content] [Hidden Content] [Hidden Content] [Hidden Content] [Hidden Content] [Hidden Content] [Hidden Content] [Hidden Content] [Hidden Content] [Hidden Content] [Hidden Content] [Hidden Content]
  10. Clerks: The Animated Series (2000-2002) DVDRiP-McTav színes, feliratos amerikai animációs sorozat Játékidő: 6x22 perc Rendező: - Chris Bailey - Nicholas Filippi - Steve Loter Író: - David Mandel - Scott Mosier - Kevin Smith - Paul Dini Szereplők: - Jeff Anderson - Jason Mewes - Brian O'Halloran - Kevin Smith - Kevin Michael Richardson Tartalom: Az 1994-es Shop-stop (Clerks) filmből 2000-ben készítették ezt a 6 részes animációs sorozatot, amiben Dante Hicks, Randal Graves és persze Jay és Néma Bob kalandjait követhetjük figyelemmel. Mintaképek: Technikai információk: Format : AVI Format/Info : Audio Video Interleave File size : 156 MiB Duration : 21mn 59s Overall bit rate mode : Variable Overall bit rate : 992 Kbps Writing application : VirtualDubMod 1.5.4.1 (build 2178/release) Writing library : VirtualDubMod build 2178/release Video ID : 0 Format : MPEG-4 Visual Format profile : Advanced Simple@L5 Format settings, BVOP : No Format settings, QPel : No Format settings, GMC : No warppoints Format settings, Matrix : Custom Codec ID : XVID Codec ID/Hint : XviD Duration : 21mn 59s Bit rate : 867 Kbps Width : 512 pixels Height : 384 pixels Display aspect ratio : 4:3 Frame rate : 23.976 fps Color space : YUV Chroma subsampling : 4:2:0 Bit depth : 8 bits Scan type : Progressive Compression mode : Lossy Bits/(Pixel*Frame) : 0.184 Stream size : 136 MiB (87%) Writing library : XviD 1.2.1 (UTC 2008-12-04) Audio ID : 1 Format : MPEG Audio Format version : Version 1 Format profile : Layer 3 Mode : Joint stereo Codec ID : 55 Codec ID/Hint : MP3 Duration : 21mn 58s Bit rate mode : Variable Bit rate : 113 Kbps Nominal bit rate : 128 Kbps Channel(s) : 2 channels Sampling rate : 48.0 KHz Compression mode : Lossy Stream size : 17.7 MiB (11%) Alignment : Aligned on interleaves Interleave, duration : 24 ms (0.58 video frame) Interleave, preload duration : 549 ms Writing library : LAME3.98r Encoding settings : -m j -V 4 -q 2 -lowpass 17 --abr 128 Letöltés: [Hidden Content] Magyar felirat a .rar-ban mellékelve.
  11. Oggy és a Svábbogarak - A mozifilm (Oggy et les cafards, 2013) színes francia animációs film + magyar kiegészítő felirat Rendező: Olivier Jean Marie Forgatókönyvíró: Olivier Jean Marie, Jean-Yves Raimbaud Szereplők: Az összes hangot Marc du Pontavice adja, de nem lehet beszédet hallani. Tartalom: Amióta világ a világ Oggy és a svábbogarak harcolnak egymással. Ezt az ősi párbajt követhetjük nyomon az őskortól, a középkoron és a viktoriánus kori Anglián keresztűl egészen a távoli jövőig. Mintaképek: Technikai információk: Méret: 697 MiB Hossz: 1h 22mn Videó információk: Típus: AVI (XviD) Felbontás: 720x388 Bitráta: 1 188 Kbps Képkockák száma/mp: 25.000 fps Audió információk: Audiósávok száma: 1 Audiosáv #1 adatai: Audiósáv típusa: MPEG-1 Audio layer 3 Csatornák száma: 2 Bitráta: 128 Kbps Mintavételezési frekvencia: 48.0 KHz LETÖLTÉS: [Hidden Content]
  12. Elsüllyedt Világok 2. évad TVRip (Les Mondes engloutis) (1985-1987) színes magyarul beszélő francia rajzfilmsorozat rendező: Michel Gauthier forgatókönyvíró: Yoon Suk Hwa zeneszerző: Vladimir Cosma szereplő(k): Yves-Marie Maurin (Spartakus hangja) Anick Faris (Arkana hangja) Kris Bénard (Bob hangja) Amandine Rajau (Rebecca hangja) Louis Arbessier (Shag-shag hangja) Francis Lax (Bic hangja) Philippe Clair (Bac hangja) Jean Négroni (Shagmir hangja) Marc Moro (Maxigáz hangja) Perrette Pradier (Popócici hangja) Jacques Deschamps (Agyalap hangja) szinkronhang: Malcsiner Péter Détár Enikő Kaszás Gergő Köves Dóra Kerekes József Harkányi Endre Maros Gábor Farkas Antal Hacser Józsa Csákányi László Sinkó László Tartalom: Mióta özönvíz söpört végig a Földön, Arkádia népe elzárkózva éli életét a Föld belsejében. Elődeik akarata szerint múltjuk minden töredékét kitöröltek emlékezetükből. Egy nap azonban a számukra életerőt adó Nap, a Shagma ereje fogyatkozni kezd. Ezért Arkádia gyermekei hírhozót küldenek a Föld felszínére. Az ő neve Arkana. Technikai információk: Videó: Kodek: MPEG-4 Video (XVID) Felbontás: 576x432 Képkockasebesség: 25 Dekódolt formátum: Planar 4:2:0 YUV Hang: Kodek: MPEG Audio layer 1/2/3 (mpga) Csatornák: Sztereó Mintavételi frekvencia: 48000 Hz Bitsebesség: 192 kb/mp Mintaképek: 2. évad letöltése: [Hidden Content] [Hidden Content] [Hidden Content] [Hidden Content] [Hidden Content] [Hidden Content] [Hidden Content] [Hidden Content] [Hidden Content] [Hidden Content] [Hidden Content] [Hidden Content] [Hidden Content] [Hidden Content] [Hidden Content] [Hidden Content] [Hidden Content] [Hidden Content] [Hidden Content] [Hidden Content] [Hidden Content] [Hidden Content] [Hidden Content] [Hidden Content] [Hidden Content] [Hidden Content]
  13. Elsüllyedt Világok 1.évad TVRip (Les Mondes engloutis) (1985-1987) színes magyarul beszélő francia rajzfilmsorozat rendező: Michel Gauthier forgatókönyvíró: Yoon Suk Hwa zeneszerző: Vladimir Cosma szereplő(k): Yves-Marie Maurin (Spartakus hangja) Anick Faris (Arkana hangja) Kris Bénard (Bob hangja) Amandine Rajau (Rebecca hangja) Louis Arbessier (Shag-shag hangja) Francis Lax (Bic hangja) Philippe Clair (Bac hangja) Jean Négroni (Shagmir hangja) Marc Moro (Maxigáz hangja) Perrette Pradier (Popócici hangja) Jacques Deschamps (Agyalap hangja) szinkronhang: Malcsiner Péter Détár Enikő Kaszás Gergő Köves Dóra Kerekes József Harkányi Endre Maros Gábor Farkas Antal Hacser Józsa Csákányi László Sinkó László Tartalom: Mióta özönvíz söpört végig a Földön, Arkádia népe elzárkózva éli életét a Föld belsejében. Elődeik akarata szerint múltjuk minden töredékét kitöröltek emlékezetükből. Egy nap azonban a számukra életerőt adó Nap, a Shagma ereje fogyatkozni kezd. Ezért Arkádia gyermekei hírhozót küldenek a Föld felszínére. Az ő neve Arkana. Technikai információk: Videó: Kodek: MPEG-4 Video (XVID) Felbontás: 640x480 Képkockasebesség: 24.998250 Dekódolt formátum: Planar 4:2:0 YUV Hang: Kodek: MPEG Audio layer 1/2/3 (mpga) Csatornák: Sztereó Mintavételi frekvencia: 44100 Hz Bitsebesség: 128 kb/mp Mintaképek: 1. évad letöltése: [Hidden Content] [Hidden Content] [Hidden Content] [Hidden Content] [Hidden Content] [Hidden Content] [Hidden Content] [Hidden Content] [Hidden Content] [Hidden Content] [Hidden Content] [Hidden Content] [Hidden Content] [Hidden Content] [Hidden Content] [Hidden Content] [Hidden Content] [Hidden Content] [Hidden Content] [Hidden Content] [Hidden Content] [Hidden Content] [Hidden Content] [Hidden Content] [Hidden Content] [Hidden Content]
  14. Riothamus

    Melyik az a játék...?

    A játék neve: Mamba
×