Jump to content
PirateClub.hu

Errorka2

Veterán
  • Content Count

    97
  • Joined

  • Last visited

Community Reputation

335 Tisztelt

1 Follower

About Errorka2

  • Rank
    Lézengő

Recent Profile Visitors

666 profile views
  1. A palota ékköve (Dae Jang-geum) (2003) Magyar szinkronos változat! dél-koreai drámasorozat, 60-65 perc 51 rész Minőség: 700MB XviD Kép: 1500 kbps Hang: 128kbps MP3 Főszereplők: Seo Jang-geum - Lee Yeong-ae Han udvarhölgy - Yang Mi-kyeong Seo Cheon-Soo- Park Chan-hwan Park Myeong-yi - Kim Hye-seon Kang Deok-gu - Lim Hyeon-shik Na Joo-daek - Geum Bo-ra Sinbi - Han Ji-min Min Jung-ho - Jin-hi Ji Yun királynőt királyi parancsra méreg általi halálra ítélik. Az ítéletet végrehajtó katonák egyike, Seo Cheon-soo hazafelé indul, ám az úton baleset éri. Egy titokzatos öreg remete siet segítségére, aki különös jóslattal ajándékozza meg: sorsát három nő fogja meghatározni. Az elsőnek a halálát okozza, a másodikat megmenti, de miatta vész el, a harmadik pedig a vesztét okozza, de ezáltal sokakat megment. A katona sokat töpreng a jóslaton, míg egy napon egy haldokló nőt talál a patak mentén. Kiderül, hogy a gyönyörű lány a palota egyik udvarhölgye, akit megmérgeztek. Cheon-Soo azonban épp időben érkezik. Letöltés: Jelszó:
  2. A fény árnyékában (Shine or Go Crazy) (2015) 720p HDTV Magyar szinkronos változat, vágatlan, koreai minőség! dél-koreai drámasorozat, 60-65 perc 24 rész 2015 Főszereplők: Shin Yool - Yeon-Seo Oh Hwangbo Yeo - Won Lee Hanee Wang Sot, az elátkozott koronaherceget apja hazahívatja. Látogatása során bérgyilkosok törnek apja életére, Wang So pedig a nyomukba ered. Eközben a szép és fiatal Shin Yool, egy nagy kereskedőcsoport vezetője, házasságra kényszerül testvére bűnei miatt. Hogy a mennyegző ne valósuljon meg, a lány azt hazudja kérőjének, kezét már elígérték egy goreyui férfinak, a lakodalom pedig 15 nap múlva esedékes. Minőség: Video ID : 1 Format : AVC Format/Info : Advanced Video Codec Format profile : High@L5.1 Format settings : CABAC / 4 Ref Frames Format settings, CABAC : Yes Format settings, ReFrames : 4 frames Codec ID : V_MPEG4/ISO/AVC Duration : 1 h 1 min Bit rate : 3 000 kb/s Width : 1 280 pixels Height : 720 pixels Display aspect ratio : 16:9 Frame rate mode : Constant Frame rate : 29.970 (30000/1001) FPS Color space : YUV Chroma subsampling : 4:2:0 Bit depth : 8 bits Scan type : Progressive Bits/(Pixel*Frame) : 0.109 Stream size : 1.29 GiB (94%) Writing library : x264 core 112 Encoding settings : cabac=1 / ref=3 / deblock=1:-1:-1 / analyse=0x3:0x113 / me=hex / subme=6 / psy=1 / psy_rd=1.00:1.00 / mixed_ref=1 / me_range=16 / chroma_me=1 / trellis=1 / 8x8dct=1 / cqm=0 / deadzone=21,11 / fast_pskip=0 / chroma_qp_offset=-4 / threads=12 / sliced_threads=0 / nr=0 / decimate=1 / interlaced=0 / constrained_intra=0 / bframes=3 / b_pyramid=2 / b_adapt=1 / b_bias=1 / direct=3 / weightb=1 / open_gop=0 / weightp=2 / keyint=299 / keyint_min=25 / scenecut=1 / intra_refresh=0 / rc_lookahead=40 / rc=abr / mbtree=1 / bitrate=3000 / ratetol=1.0 / qcomp=0.60 / qpmin=10 / qpmax=51 / qpstep=4 / ip_ratio=1.40 / aq=1:1.00 Default : Yes Forced : No Audio ID : 2 Format : MPEG Audio Format version : Version 1 Format profile : Layer 3 Codec ID : A_MPEG/L3 Codec ID/Hint : MP3 Duration : 1 h 1 min Bit rate mode : Constant Bit rate : 192 kb/s Channel(s) : 2 channels Sampling rate : 44.1 kHz Frame rate : 38.281 FPS (1152 SPF) Compression mode : Lossy Stream size : 83.9 MiB (6%) Default : Yes Forced : No Letöltés: [Hidden Content] [Hidden Content] [Hidden Content] [Hidden Content] [Hidden Content] [Hidden Content] [Hidden Content] [Hidden Content] [Hidden Content] [Hidden Content] [Hidden Content] [Hidden Content] [Hidden Content] [Hidden Content] [Hidden Content] [Hidden Content] [Hidden Content] [Hidden Content] [Hidden Content] [Hidden Content] [Hidden Content] [Hidden Content] [Hidden Content] [Hidden Content] Jelszó: Errorka
  3. Errorka2

    depositfiles Áll az alku 2017

    Megjelent az Áll az Alku 2017-es HD Ready verziója 23 táskával! A játékot nem kell telepíteni, hordozható (portable) verzió. Csak töltsd le és indítsd el! Játék leírása: Gundel Takács Gábor legendás vetélkedője hét év után tér vissza a TV2 képernyőjére! Megújult díszletben, reflektorfényben a mesés összegeket rejtő táskák és az az egy szerencsés játékos, aki aznap este esélyt kap, hogy egy kis szerencsével megváltoztassa az egész életét. A táskák tartalma alaposan megnőtt: csak az öt legmagasabb megnyerhető összeg együttesen több, mint 100 millió forintot tesz ki. Most lehetőséged van neked is átélned az izgalmat, mert a játékos most TE vagy! Gundel Takács Gáborral vagy Kovács Áronnal és a többi játékos eredeti hangjával! A táskák nyitása a TV-s játékban megszokott rend szerint zajlik (5-3-3-3-3-2-2-2), a banki ajánlatok érkezését pedig mindig a bankigazgató telefonhívása jelzi. A játék végén a nyereményed internetes listára is feltöltődik, így másik is láthatják, hogy mennyit nyertél, illetve Te is megnézheted, hogy mennyit nyertek a többiek a játékban! Jó játékot és gazdag nyereményt! Méret: 114MB (kitömörítve: 130MB) [Hidden Content]
  4. Királynő egy hétre (7 Ilui Wangbi) (Queen for Seven Days) 2017 1080p HDTV Magyar szinkronos változat, vágatlan, Koreai minőség! dél-koreai drámasorozat, 60-65 perc 20 rész 2017 Főszereplők Park Min Young - Shin Chae Kyung / Dangyeong királyné Park Shi Eun - fiatalon Shin Chae Kyung Yun Woo Jin - Lee Yuk / Jungjong király Baek Seung Hwan - fiatalon Lee Yuk Lee Dong Gun - Lee Yoong / Yeonsangun király Jang Hyun Sung - Shin Soo Geun Kang Shin Il - Im Sahong Son Eun Seo - Jang Nok-su Song Ji In - Shin királyné Kim Jung Young - madam Kwon Rendező: Lee Jung-Sub Forgatókönyvíró: Choi Jin-young Ha valaki a királycsaládba házasodik, a gondmentes élet garantálva lesz. Shin Chae Kyung egy meghatározó és erős politikus lánya, a Joseon dinasztia idején. Beleszeret a koronahercegbe Lee Yukba aki féltestvére zsarnoksága alatt él, míg egyik nap meg nem koronázzák. A trón megszerzése után viszont az új királynével kereszttűzbe kerülnek. Amikor Kyung királynő apja puccsot állít a király ellen, a királynőt kiűzik a palotából. Mi fog történni a király pár szerelmével ezek után? Források: Kép: MBC.HDTV.H264.720p-NEXT Hang: CATV.STORY5 Video ID : 1 Format : AVC Format/Info : Advanced Video Codec Format profile : High@L3.2 Format settings : CABAC / 3 Ref Frames Format settings, CABAC : Yes Format settings, RefFrames : 3 frames Format settings, GOP : M=4, N=30 Codec ID : V_MPEG4/ISO/AVC Duration : 1 h 4 min Bit rate : 2 836 kb/s Width : 1 280 pixels Height : 720 pixels Display aspect ratio : 16:9 Frame rate mode : Constant Frame rate : 29.970 (30000/1001) FPS Color space : YUV Chroma subsampling : 4:2:0 Bit depth : 8 bits Scan type : Progressive Bits/(Pixel*Frame) : 0.103 Stream size : 1.27 GiB (94%) Default : Yes Forced : No Audio ID : 2 Format : MPEG Audio Format version : Version 1 Format profile : Layer 3 Codec ID : A_MPEG/L3 Codec ID/Hint : MP3 Duration : 1 h 4 min Bit rate mode : Constant Bit rate : 192 kb/s Channel(s) : 2 channels Sampling rate : 44.1 kHz Frame rate : 38.281 FPS (1152 SPF) Compression mode : Lossy Stream size : 88.2 MiB (6%) Default : Yes Forced : No Letöltés: [Hidden Content] [Hidden Content] [Hidden Content] [Hidden Content] [Hidden Content] [Hidden Content] [Hidden Content] [Hidden Content] [Hidden Content] [Hidden Content] [Hidden Content] [Hidden Content] [Hidden Content] [Hidden Content] [Hidden Content] [Hidden Content] [Hidden Content] [Hidden Content] [Hidden Content] [Hidden Content] Jelszó: Errorka
  5. Remélem, hogy majd megjavul, mert egyetlen új link hozzáadásától szétesett az első hozzászólásom.
  6. Szia Sancimaci8! Letölteni így lehet a részeket: Ha a data.hu-ra tölteném fel, akkor a mérete miatt csak a prémium felhasználok tudnák letölteni, tehát fizetni kellene érte. Depositfiles-ról viszont viszonylag gyorsan és ingyen letölthető.
  7. A császárság kincse (Ki Hwanghoo) (Empress Ki) 2013 720p WEB-DL AAC 2.0 51 részes dél-koreai drámasorozat, 58-61 perc Főszereplők Ki Seung-nyang - Ji-won Ha Ta Hwan - Chang-wook Ji Wang Yoo - Jin-mo Ju Tanashiri - Jin-hee Baek Wang Go - Jae-yong Lee Rendező: Han Hee és Seung-joon Lee Forgatókönyvíró: Young Chul Jang Zeneszerző: Jay Kim Jüanban a mongol császár házasodni készül. Felesége szegénysorból, sok hányattatáson keresztül tört fel ebbe a csillogó világba. Visszaemlékezéséből ismerjük meg Szüng-Nyángot, akit ágyasnak hurcolnak el Jüanba, csakhogy az ifjú, de hősies Vang Ju közbenjárására elmenekülhet, bár édesanyját elveszíti. Apja keresésére indul, majd kiköt Vang Ko, a senjangi király udvarában, ahol fiúnak adva ki magát bátor, rátermett harcossá cseperedik. A királyt szolgálja, közben pedig összefogva néhány szegény sorstársával, küzd az elnyomottakért. Így találkozik újra az immár férfivá érett Vang Ju-val. Videó információk: Video ID : 1 Format : AVC Format/Info : Advanced Video Codec Format profile : High@L3.1 Format settings, CABAC : Yes Format settings, ReFrames : 1 frame Codec ID : V_MPEG4/ISO/AVC Duration : 58 min Bit rate mode : Constant Bit rate : 2 660 kb/s Width : 1 280 pixels Height : 720 pixels Display aspect ratio : 16:9 Frame rate mode : Constant Frame rate : 25.000 FPS Color space : YUV Chroma subsampling : 4:2:0 Bit depth : 8 bits Scan type : Progressive Bits/(Pixel*Frame) : 0.115 Stream size : 1.08 GiB (95%) Language : Hungarian Default : No Forced : No Audio ID : 2 Format : AAC Format/Info : Advanced Audio Codec Format profile : LC Codec ID : A_AAC Duration : 58 min Bit rate : 125 kb/s Channel(s) : 2 channels Channel positions : Front: L R Sampling rate : 48.0 kHz Frame rate : 46.875 FPS (1024 spf) Compression mode : Lossy Stream size : 52.3 MiB (5%) Title : Stereo Language : Hungarian Default : Yes Forced : No Letöltés: [Hidden Content] [Hidden Content] [Hidden Content] [Hidden Content] [Hidden Content] [Hidden Content] [Hidden Content] [Hidden Content] [Hidden Content] [Hidden Content] [Hidden Content] [Hidden Content] [Hidden Content] [Hidden Content] [Hidden Content] [Hidden Content] [Hidden Content] [Hidden Content] [Hidden Content] [Hidden Content] [Hidden Content] [Hidden Content] [Hidden Content] [Hidden Content] [Hidden Content] [Hidden Content] [Hidden Content] [Hidden Content] [Hidden Content] [Hidden Content] [Hidden Content] [Hidden Content] [Hidden Content] [Hidden Content] [Hidden Content] [Hidden Content] [Hidden Content] [Hidden Content] [Hidden Content] [Hidden Content] [Hidden Content] [Hidden Content] [Hidden Content] [Hidden Content] [Hidden Content] [Hidden Content] [Hidden Content] [Hidden Content] [Hidden Content] [Hidden Content] [Hidden Content] [Hidden Content] [Hidden Content] [Hidden Content] [Hidden Content] [Hidden Content] [Hidden Content] [Hidden Content] [Hidden Content] [Hidden Content] [Hidden Content] [Hidden Content] [Hidden Content] [Hidden Content] [Hidden Content] [Hidden Content] [Hidden Content] [Hidden Content] [Hidden Content] [Hidden Content] [Hidden Content] Jelszó: Errorka
  8. Szívesen. Értem. Ó, az egyetem az egyik legjobb dolog
  9. Szia! Szívesen. Megpróbálom azt is feltenni. Az a 14:25-ös kezdés nagyon korai egy ilyen sorozatnál. A diákok többsége addigra még nem ér haza, ha csak nem lakik közel az iskolához. Aki meg dolgozik, az akkor még bőven dolgozik. Ha ez menne a 18:35-ös sávban, akkor biztosan több nézője lenne. Bár ki tudja. Lehet, hogy abban az időpontban más csatornát néznek.
  10. A fény hercegnője (Hwajung) (The Princess of Light) 2015 360p HDTV XviD dél-koreai drámasorozat, 59-64 perc 50 rész 2015 Főszereplők Cha Seung Won - Gwanghae herceg Lee Yun Hee - Jungmyung hercegnő/ Hwayi Kim Jae Won - Injo király Seo Kang Joon - Hong Joo Won Han Joo Wan - Kang In Woo Rendező: Kim Sang Ho and Choi Jung Kyu Forgatókönyvíró: Kim Yi Young Jungmyung hercegnő az egyetlen egyenes ági leszármazottja volt Seonjo királynak, aki még élt, amikor ő megszületett. A király halála után Gwanghae került a trónra és az első parancsa az volt, hogy eltűntesse a herceget és száműzze a királynőt a palotából. A következő célpontja a hercegnő volt. Amikor Inmok királynő megtudta, hogy lánya veszélybe került, elküldte és elbújtatta. De a bérgyilkosok a nyomára bukkantak Jungmyung hercegnőnek. A hercegnő testőrének és dadájának heroikus önfeláldozása következtében a hercegnőt sikerült egy hajóra menekíteni. A hercegnőt a tengeren sodródva egy Japán felé tartó hajó találta meg. Eladták rabszolgának. Azért, hogy túlélje az ellenséges környezetet elhallgatta azt, hogy ő egy hercegnő. Fiúnak álcázva magát, Jungmyung munkásként egy kénbányában kezdett el dolgozni. Barátra lelt, ami segítette abban, hogy túlélje a megpróbáltatásokat és megtalálta a reményt a kétségbeesés legmélyén is. De sosem adta fel, hogy egyszer újra visszatérjen Joseon városba, az otthonába és megbuktassa Gwanghaet, aki mindent elvett tőle. Hamarosan alkalom adódik és valóra válhat az álma, hogy visszatérjen. Források: Kép: MBC.HDTV.XviD-LIMO Hang: CATV.STORY4 Videó információk: Format : MPEG-4 Visual Format profile : Advanced Simple@L5 Format settings, BVOP : No Format settings, QPel : No Format settings, GMC : No warppoints Format settings, Matrix : Default (MPEG) Codec ID : XVID Codec ID/Hint : XviD Duration : 58 min Bit rate : 1 450 kb/s Width : 624 pixels Height : 352 pixels Display aspect ratio : 16:9 Frame rate : 29.970 (29970/1000) FPS Color space : YUV Chroma subsampling : 4:2:0 Bit depth : 8 bits Scan type : Progressive Compression mode : Lossy Bits/(Pixel*Frame) : 0.220 Stream size : 610 MiB (91%) Writing library : XviD 1.2.1 (UTC 2008-12-04) Hang információk: Format : MPEG Audio Format version : Version 1 Format profile : Layer 3 Codec ID : 55 Codec ID/Hint : MP3 Duration : 46 min Source duration : 58 min Bit rate mode : Constant Bit rate : 128 kb/s Channel(s) : 2 channels Sampling rate : 44.1 kHz Compression mode : Lossy Stream size : 53.8 MiB (8%) Alignment : Aligned on interleaves Interleave, duration : 26 ms (0.78 video frame) Letöltés: [Hidden Content] [Hidden Content] [Hidden Content] [Hidden Content] [Hidden Content] [Hidden Content] [Hidden Content] [Hidden Content] [Hidden Content] [Hidden Content] [Hidden Content] [Hidden Content] [Hidden Content] [Hidden Content] [Hidden Content] [Hidden Content] [Hidden Content] [Hidden Content] [Hidden Content] [Hidden Content] [Hidden Content] [Hidden Content] [Hidden Content] [Hidden Content] [Hidden Content] [Hidden Content] [Hidden Content] [Hidden Content] [Hidden Content] [Hidden Content] [Hidden Content] [Hidden Content] [Hidden Content] [Hidden Content] [Hidden Content] [Hidden Content] [Hidden Content] [Hidden Content] [Hidden Content] [Hidden Content] [Hidden Content] [Hidden Content] [Hidden Content] [Hidden Content] [Hidden Content] [Hidden Content] [Hidden Content] [Hidden Content] [Hidden Content] [Hidden Content] Jelszó: Errorka
  11. Cím: A korona hercege Műfaj: Történelmi, dráma, Rész: 1/77 Hossza: 01:10:58 Sugárzó csatorna: m1 Felvétel: m2 Premier: 2012. július 09. hétfő Hang: magyar 128kbps MP3 Kép: 720x544 1379kbps Format : AVI Format/Info : Audio Video Interleave File size : 700 MiB Duration : 1h 10mn Overall bit rate : 1 379 Kbps Writing library : VirtualDub build 32842/release Video ID : 0 Format : MPEG-4 Visual Format settings, BVOP : 1 Format settings, QPel : No Format settings, GMC : No warppoints Format settings, Matrix : Default (H.263) Muxing mode : Packed bitstream Codec ID : DX50 Codec ID/Hint : DivX 5 Duration : 1h 10mn Bit rate : 1 241 Kbps Width : 720 pixels Height : 544 pixels Display aspect ratio : 4:3 Frame rate : 25.000 fps Color space : YUV Chroma subsampling : 4:2:0 Bit depth : 8 bits Scan type : Progressive Compression mode : Lossy Bits/(Pixel*Frame) : 0.127 Stream size : 630 MiB (90%) Writing library : DivX 6.8.2 (UTC 2008-05-17) IMDb: [Hidden Content] Sorozat INFO: 1762-ben, Young-jo király palotájában az udvari hatalmasságok belső hatalmi harca dúl, aminek a trónörökös koronaherceg áldozatul esik, saját apja éhezteti halálra. Itt találkozik véletlenül három egykorú gyerek: a bátor, elárvult Song-yeon, akit nagybátyja ad el a királyi udvarba udvarhölgynek, Dae-soo, akit eunuchnak szánnak, de még nem kasztrálták és nagyon fél emiatt, valamint a talpraesett Lee-San, a trónörökös fia, a király unokája. A három gyerek életre szóló barátságot köt. Sado koronaherceg egy rizsládába zárva raboskodik, mivel apja, Young-jo király azt hiszi, hogy összeesküvést sző ellene. Sado egy festményt bíz Lee Sanra, hogy mutassa meg a királynak, mert akkor megenyhül iránta érzett haragja. Azonban Lee San csak azt éri el, hogy szeszélyes nagyapja kitiltsa őt és anyját a palotából... Depositfiles-ról: [Hidden Content] [Hidden Content] [Hidden Content] [Hidden Content] [Hidden Content] [Hidden Content] [Hidden Content] [Hidden Content] [Hidden Content] [Hidden Content] [Hidden Content] [Hidden Content] [Hidden Content] [Hidden Content] [Hidden Content] [Hidden Content] [Hidden Content] [Hidden Content] [Hidden Content] [Hidden Content] [Hidden Content] [Hidden Content] [Hidden Content] [Hidden Content] [Hidden Content] [Hidden Content] [Hidden Content] [Hidden Content] [Hidden Content] [Hidden Content] [Hidden Content] [Hidden Content] [Hidden Content] [Hidden Content] [Hidden Content] [Hidden Content] [Hidden Content] [Hidden Content] [Hidden Content] [Hidden Content] [Hidden Content] [Hidden Content] [Hidden Content] [Hidden Content] [Hidden Content] [Hidden Content] [Hidden Content] [Hidden Content] [Hidden Content] [Hidden Content] [Hidden Content] [Hidden Content] [Hidden Content] [Hidden Content] [Hidden Content] [Hidden Content] [Hidden Content] [Hidden Content] [Hidden Content] [Hidden Content] [Hidden Content] [Hidden Content] [Hidden Content] [Hidden Content] [Hidden Content] [Hidden Content] [Hidden Content] [Hidden Content] [Hidden Content] [Hidden Content] [Hidden Content] [Hidden Content] [Hidden Content] [Hidden Content] [Hidden Content] [Hidden Content] [Hidden Content] [Hidden Content] [Hidden Content] [Hidden Content] [Hidden Content] [Hidden Content] [Hidden Content] [Hidden Content] [Hidden Content] [Hidden Content] [Hidden Content] [Hidden Content] [Hidden Content] [Hidden Content] [Hidden Content] [Hidden Content] [Hidden Content] [Hidden Content] [Hidden Content] [Hidden Content] [Hidden Content] [Hidden Content] [Hidden Content] [Hidden Content] [Hidden Content] [Hidden Content] [Hidden Content] [Hidden Content] [Hidden Content] [Hidden Content] [Hidden Content] [Hidden Content] [Hidden Content] [Hidden Content] [Hidden Content] [Hidden Content] [Hidden Content] [Hidden Content] [Hidden Content] [Hidden Content] [Hidden Content] [Hidden Content] [Hidden Content] [Hidden Content] [Hidden Content] [Hidden Content] [Hidden Content] [Hidden Content] [Hidden Content] [Hidden Content] [Hidden Content] [Hidden Content] [Hidden Content] [Hidden Content] [Hidden Content] [Hidden Content] [Hidden Content] [Hidden Content] [Hidden Content] [Hidden Content] [Hidden Content] [Hidden Content] [Hidden Content] [Hidden Content] [Hidden Content] [Hidden Content] [Hidden Content] [Hidden Content] [Hidden Content] [Hidden Content] [Hidden Content] [Hidden Content] [Hidden Content] [Hidden Content] [Hidden Content] [Hidden Content] [Hidden Content] [Hidden Content] Jelszó: Errorka
  12. Errorka2

    Autóba való zenék

    Yolanda Be Cool & DCUP - We No Speak Americano (Ryan Riback)
×