Jump to content
PirateClub.hu
Sign in to follow this  
ninoel

Venom 2. - Vérontó (Venom: Let There Be Carnage) 2021.2160p.HDR10Plus.WEBRip.6CH.x265.HunSub

Recommended Posts

Venom 2. - Vérontó (Venom: Let There Be Carnage) 2021.2160p.HDR10Plus.WEBRip.6CH.x265.HunSub
magyar feliratos, amerikai akció-horror, vígjáték, 97 perc, 3.2 Gb

venom2.jpg


4k-ultra-hd_-_tv.png
hdr10x265.png

18plus.png

„Ha egyszer kiszabadulok innen, lesz egy kis vérontás” – mondta egy titokzatos fegyenc a Venom végén Eddie Brock-nak (Tom Hardy). Annak a vakmerő, nagyszájú tényfeltáró újságírónak, aki egy laboratóriumi felderítése során súlyosan megfertőződött: és azóta szimbiótaként, a testében élősködő gonosz Venommal együtt kénytelen élni.
És kezdi megszeretni, hogy egy szupererős szörny lapul benne.
Rá is szorul: mert mostantól nemcsak magával kell szembenéznie, hanem egy nála is erősebb, gonoszabb lénnyel, akit nem akar senki rövid pórázon tartani. Jön Vérontó (Woody Harrelson), hogy ígérete szerint pusztítson a világon.

RENDEZŐ: Andy Serkis
FORGATÓKÖNYVÍRÓ: Kelly Marcel, Tom Hardy, Todd McFarlane, David Michelinie
ZENE: Marco Beltrami
SZEREPLŐK: Tom Hardy, Woody Harrelson, Michelle Williams, Naomie Harris, Stephen Graham, Reid Scott, Michelle Greenidge

Spoiler

 

Video
ID                          : 1
Format                      : HEVC
Format/Info                 : High Efficiency Video Coding
Format profile              : Main 10@L5@Main
HDR format                  : SMPTE ST 2094 App 4, Version 1, HDR10+ Profile B compatible
Codec ID                    : V_MPEGH/ISO/HEVC
Duration                    : 1 h 37 min
Bit rate                    : 4 141 kb/s
Width                       : 3 840 pixels
Height                      : 2 080 pixels
Display aspect ratio        : 1.85:1
Frame rate mode             : Constant
Frame rate                  : 23.976 (24000/1001) FPS
Color space                 : YUV
Chroma subsampling          : 4:2:0
Bit depth                   : 10 bits
Bits/(Pixel*Frame)          : 0.022
Stream size                 : 2.81 GiB (95%)
Default                     : Yes
Forced                      : No
Color range                 : Limited
Color primaries             : BT.2020
Transfer characteristics    : PQ
Matrix coefficients         : BT.2020 non-constant
Mastering display color pri : BT.2020
Mastering display luminance : min: 0.0001 cd/m2, max: 1000 cd/m2
Maximum Content Light Level : 5681 cd/m2
Maximum Frame-Average Light : 522 cd/m2

Audio
ID                          : 2
Format                      : AAC LC SBR
Format/Info                 : Advanced Audio Codec Low Complexity with Spectral Band Replication
Commercial name             : HE-AAC
Format settings             : Explicit
Codec ID                    : A_AAC-2
Duration                    : 1 h 37 min
Bit rate                    : 206 kb/s
Channel(s)                  : 6 channels
Channel layout              : C L R Ls Rs LFE
Sampling rate               : 48.0 kHz
Frame rate                  : 23.438 FPS (2048 SPF)
Compression mode            : Lossy
Delay relative to video     : 23 ms
Stream size                 : 143 MiB (5%)
Language                    : English
Default                     : Yes
Forced                      : No

Text
ID                          : 3
Format                      : UTF-8
Codec ID                    : S_TEXT/UTF8
Codec ID/Info               : UTF-8 Plain Text
Duration                    : 1 h 27 min
Bit rate                    : 54 b/s
Count of elements           : 1160
Stream size                 : 34.9 KiB (0%)
Language                    : Hungarian
Default                     : Yes
Forced                      : No

 

Hidden Content

    Give reaction or reply to this topic to see the hidden content.

 

  • Like 1
  • Thanks 6

Share this post


Link to post
Share on other sites
Sign in to follow this  

  • Recently Browsing   0 members

    No registered users viewing this page.

×