Jump to content
PirateClub.hu
Sign in to follow this  
ninoel

Orcád verítékével (Igazság és jog) (Tõde ja õigus) 2019.1080p.10bit.BluRay.x265.Hun

Recommended Posts

Orcád verítékével (Igazság és jog) (Tõde ja õigus) 2019.1080p.10bit.BluRay.x265
szinkronizált, észt filmdráma, 165 perc, 1.9 Gb

truth-justice.jpg

1080p-10bit-3v.png

hevc_265_hu_2.jpg

A film az észtek nagy klasszikusa, Anton Hansen Tammsaare magyarul is elérhető regénye alapján készült és hazájában egy hónap alatt vált minden idők legnézettebb észt filmjévé.
Észtország a 19. század végén. A fiatal, becsületes Andres és felesége, Krõõt egy kölcsönből vásárolt tanyán kezdik meg új életüket. De a természet nem engedi betörni a földet, a szomszéd nyakas riválisnak bizonyul, Krõõt lányokat szül, Andres pedig egyre csak küszködik. Kétségbeesetten keresi az igazságot a bíróságon, a kocsmában és a Bibliában - feláldozva családját, barátait és végül saját magát is. A virágzó Vargamägi tanyáról szőtt álom megszállottságba hajszolja a gazdát. Ettől semmit sem válik valóra, de minden félelem beteljesül.

RENDEZŐ: Tanel Toom
ÍRÓ: Anton Hansen Tammsaare
FORGATÓKÖNYVÍRÓ: Tanel Toom
ZENE: Mihkel Zilmer
SZEREPLŐK: Loora-Eliise Kaarelson, Maiken Schmidt, Priit Võigemast, Ester Kuntu, Priit Loog, Mikk Kaasik, Indrek Sammul

Spoiler

 

Video
ID                          : 1
Format                      : HEVC
Format/Info                 : High Efficiency Video Coding
Format profile              : Main 10@L4@High
Codec ID                    : V_MPEGH/ISO/HEVC
Duration                    : 2 h 45 min
Bit rate                    : 1 291 kb/s
Width                       : 1 920 pixels
Height                      : 800 pixels
Display aspect ratio        : 2.40:1
Frame rate mode             : Constant
Frame rate                  : 25.000 FPS
Color space                 : YUV
Chroma subsampling          : 4:2:0
Bit depth                   : 10 bits
Bits/(Pixel*Frame)          : 0.034
Stream size                 : 1.49 GiB (87%)
Default                     : Yes
Forced                      : No

Audio
ID                          : 2
Format                      : E-AC-3
Format/Info                 : Enhanced AC-3
Commercial name             : Dolby Digital Plus
Codec ID                    : A_EAC3
Duration                    : 2 h 45 min
Bit rate mode               : Constant
Bit rate                    : 192 kb/s
Channel(s)                  : 2 channels
Channel layout              : L R
Sampling rate               : 48.0 kHz
Frame rate                  : 31.250 FPS (1536 SPF)
Compression mode            : Lossy
Stream size                 : 227 MiB (13%)
Language                    : Hungarian
Service kind                : Complete Main
Default                     : Yes
Forced                      : No

 

Hidden Content

    Give reaction or reply to this topic to see the hidden content.

 

  • Like 3
  • Thanks 7

Share this post


Link to post
Share on other sites
Sign in to follow this  

  • Recently Browsing   0 members

    No registered users viewing this page.

×