Jump to content
PirateClub.hu
Sign in to follow this  
ninoel

Trollok a világ körül (Trolls World Tour) 2020.1080p.10bit.BluRay.EAC3.6CH.x265.Hun

Recommended Posts

Trollok a világ körül (Trolls World Tour) 2020.1080p.10bit.BluRay.EAC3.6CH.x265
szinkronizált, amerikai animációs vígjáték, kalandfilm, 90 perc, 2.2 Gb

trolls-world.jpg

1080p-10bit-3v.png

hevc_265_hu_2.jpg

Minden csupa csillám és boldogság Trollvárosban, amíg Pipacs királynő és Ágas meglepő felfedezést nem tesznek – vannak más troll világok is az övéken túl, és mindegyikben más zenei irányzat az úr. Amikor egy titokzatos fenyegetés az ország összes trollját veszélybe sodorja, Pipacs, Ágas és a barátok bandája nekivág a nagyszabású expedíciónak az ismeretlen tájakon át, hogy végrehajtsák a lehetetlent, és harmóniát hozzanak létre a különféle trollok között, hogy együtt nézhessenek szembe a végzettel.
A nagysikerű animációs film várva várt folytatása összehozza a különféle zenei műfajokat, a poptól a countryn át a hip-hopig; a kemény rocktól a funkon át a K-popig, az elektronikus tánczenéről nem is beszélve!

RENDEZŐ: Walt Dohrn, David P. Smith
FORGATÓKÖNYVÍRÓ: Jonathan Aibel, Glenn Berger, Maya Forbes
ZENE: Theodore Shapiro
SZEREPLŐK: Anna Kendrick, Sam Rockwell, Jamie Dornan, Zooey Deschanel, Justin Timberlake, James Corden, Mary J. Blige

Spoiler

 

Video
ID                          : 1
Format                      : HEVC
Format/Info                 : High Efficiency Video Coding
Format profile              : Main 10@L4@Main
Codec ID                    : V_MPEGH/ISO/HEVC
Duration                    : 1 h 30 min
Bit rate                    : 2 874 kb/s
Width                       : 1 920 pixels
Height                      : 816 pixels
Display aspect ratio        : 2.35:1
Frame rate mode             : Constant
Frame rate                  : 23.976 (24000/1001) FPS
Color space                 : YUV
Chroma subsampling          : 4:2:0
Bit depth                   : 10 bits
Bits/(Pixel*Frame)          : 0.077
Stream size                 : 1.82 GiB (92%)
Default                     : Yes
Forced                      : No

Audio
ID                          : 2
Format                      : E-AC-3
Format/Info                 : Enhanced AC-3
Commercial name             : Dolby Digital Plus
Codec ID                    : A_EAC3
Duration                    : 1 h 30 min
Bit rate mode               : Constant
Bit rate                    : 256 kb/s
Channel(s)                  : 6 channels
Channel layout              : L R C LFE Ls Rs
Sampling rate               : 48.0 kHz
Frame rate                  : 31.250 FPS (1536 SPF)
Compression mode            : Lossy
Stream size                 : 166 MiB (8%)
Language                    : Hungarian
Service kind                : Complete Main
Default                     : Yes
Forced                      : No

 

Hidden Content

    Give reaction or reply to this topic to see the hidden content.

 

  • Like 1
  • Thanks 4

Share this post


Link to post
Share on other sites
Sign in to follow this  

  • Recently Browsing   0 members

    No registered users viewing this page.

×