Jump to content
PirateClub.hu
Sign in to follow this  
ninoel

McDonald és Dodds (McDonald & Dodds) 2020.1080p.10bit.WEB-DL.x265.Hun 1.T 2.T évad

Recommended Posts

McDonald és Dodds (McDonald & Dodds) 2020.1080p.10bit.WEB-DL.x265 évad
szinkronizált, angol krimi vígjáték, misztikus sorozat, 90 perc, 830 Mb/rész

mcdoald.jpg

1080p-10bit-3v.png

hevc_265_hu_2.jpg

A félénk és rejtélyes Dodds nyomozó társául kapja az ambiciózus Lauren McDonald főfelügyelőt, a furcsa páros ezután együtt próbálja megoldani a történelmi város, Bath bűneseteit.

RENDEZŐ: Laura Scrivano, Richard Senior
ÍRÓ: Robert Murphy, Kam Odedra
FORGATÓKÖNYVÍRÓ: Robert Murphy
ZENE: Blair Mowat
SZEREPLŐK: Rupert Graves, Cathy Tyson, Rosie Day, Rob Brydon, Patsy Kensit, Ellie Kendrick, Joanna Scanlan, Shelley Conn

Spoiler

 

Video
ID                          : 1
Format                      : HEVC
Format/Info                 : High Efficiency Video Coding
Format profile              : Main 10@L5.1@High
Codec ID                    : V_MPEGH/ISO/HEVC
Duration                    : 1 h 30 min
Bit rate                    : 1 116 kb/s
Width                       : 1 920 pixels
Height                      : 1 080 pixels
Display aspect ratio        : 16:9
Frame rate mode             : Constant
Frame rate                  : 25.000 FPS
Color space                 : YUV
Chroma subsampling          : 4:2:0
Bit depth                   : 10 bits
Bits/(Pixel*Frame)          : 0.022
Stream size                 : 719 MiB (91%)
Default                     : Yes
Forced                      : No
Color range                 : Limited
Color primaries             : BT.709
Transfer characteristics    : BT.709
Matrix coefficients         : BT.709

Audio
ID                          : 2
Format                      : AAC LC
Format/Info                 : Advanced Audio Codec Low Complexity
Codec ID                    : A_AAC-2
Duration                    : 1 h 30 min
Bit rate                    : 110 kb/s
Channel(s)                  : 2 channels
Channel layout              : L R
Sampling rate               : 48.0 kHz
Frame rate                  : 46.875 FPS (1024 SPF)
Compression mode            : Lossy
Delay relative to video     : 20 ms
Stream size                 : 70.7 MiB (9%)
Language                    : Hungarian
Default                     : Yes
Forced                      : No

Forrás: 
McDonald.and.Dodds.2020.S01E01.WEB-DL.1080p.AMZN.HDREZKA.STUDIO.mkv - 4.93 GB
McDonald.and.Dodds.2020.S01E02.WEB-DL.1080p.AMZN.HDREZKA.STUDIO.mkv - 6.03 GB

 

 

Hidden Content

    Give reaction or reply to this topic to see the hidden content.

2. évad

Hidden Content

    Give reaction or reply to this topic to see the hidden content.


 

  • Like 3
  • Thanks 5

Share this post


Link to post
Share on other sites

McDonald és Dodds (McDonald & Dodds) 2020.1080p.10bit.WEB-DL.x265  2. évad  3. rész.

  • Like 1
  • Thanks 2

Share this post


Link to post
Share on other sites
Sign in to follow this  

  • Recently Browsing   0 members

    No registered users viewing this page.

×