Jump to content
PirateClub.hu
Sign in to follow this  
ninoel

Legendás állatok és megfigyelésük (Fantastic Beasts and Where to Find Them) 2016.2160p.10bit.HDR.BluRay.6CH.x265.Hun

Recommended Posts

Legendás állatok és megfigyelésük (Fantastic Beasts and Where to Find Them) 2016.2160p.10bit.HDR.BluRay.6CH.x265
szinkronizált, angol-amerikai fantasy, 140 perc, 4.5 Gb

legend-s.jpg

4k-ultra-hd_-_tv.png

hdr10x265.png

1926-ban New Yorkba érkezik az ifjú Salmander professzor, a bűvös fenevadak szakértője. Egy új bestiát készül beszerezni ritka és veszélyeztetett mágikus lényekből álló gyűjteményébe, ám hamarosan fordul a kocka, és varázslatos bőröndjéből kiszökött saját teremtményeit kell megtalálnia. Ebben egy jó szándékú mugli (Amerikában magnix), egy lefokozott varázslólány és annak kacér, gondolatolvasó húga lesz a segítségére. Egyikük sem sejti, milyen veszedelmes dolgokkal kell szembenézniük.

RENDEZŐ: David Yates
ÍRÓ: J. K. Rowling
ZENE: James Newton Howard
SZEREPLŐK: Johnny Depp, Colin Farrell, Eddie Redmayne, Jon Voight, Ezra Miller, Ron Perlman, Zoë Kravitz, Katherine Waterston

Spoiler

 

Video
ID                          : 1
Format                      : HEVC
Format/Info                 : High Efficiency Video Coding
Format profile              : Main 10@L5@Main
HDR format                  : SMPTE ST 2086, HDR10 compatible
Codec ID                    : V_MPEGH/ISO/HEVC
Duration                    : 2 h 12 min
Bit rate                    : 4 329 kb/s
Width                       : 3 840 pixels
Height                      : 1 600 pixels
Display aspect ratio        : 2.40:1
Frame rate mode             : Constant
Frame rate                  : 23.976 (24000/1001) FPS
Color space                 : YUV
Chroma subsampling          : 4:2:0 (Type 2)
Bit depth                   : 10 bits
Bits/(Pixel*Frame)          : 0.029
Stream size                 : 4.02 GiB (96%)
Default                     : Yes
Forced                      : No
Color range                 : Limited
Color primaries             : BT.2020
Transfer characteristics    : PQ
Matrix coefficients         : BT.2020 non-constant
Mastering display color pri : Display P3
Mastering display luminance : min: 0.0050 cd/m2, max: 4000 cd/m2
Maximum Content Light Level : 3173 cd/m2
Maximum Frame-Average Light : 484 cd/m2

Audio
ID                          : 2
Format                      : E-AC-3
Format/Info                 : Enhanced AC-3
Commercial name             : Dolby Digital Plus
Codec ID                    : A_EAC3
Duration                    : 2 h 12 min
Bit rate mode               : Constant
Bit rate                    : 192 kb/s
Channel(s)                  : 6 channels
Channel layout              : L R C LFE Ls Rs
Sampling rate               : 48.0 kHz
Frame rate                  : 31.250 FPS (1536 SPF)
Compression mode            : Lossy
Stream size                 : 182 MiB (4%)
Language                    : Hungarian
Service kind                : Complete Main
Default                     : Yes
Forced                      : No

Text
ID                          : 3
Format                      : UTF-8
Codec ID                    : S_TEXT/UTF8
Codec ID/Info               : UTF-8 Plain Text
Duration                    : 2 h 11 min
Bit rate                    : 2 b/s
Count of elements           : 55
Stream size                 : 2.06 KiB (0%)
Language                    : Hungarian
Default                     : Yes
Forced                      : Yes

 

Hidden Content

    Give reaction or reply to this topic to see the hidden content.

 

  • Like 2
  • Thanks 7

Share this post


Link to post
Share on other sites
Sign in to follow this  

  • Recently Browsing   0 members

    No registered users viewing this page.

×