Jump to content
PirateClub.hu
Sign in to follow this  
ninoel

Carlito útja (Carlito's Way) 1993.2160p.10bit.HDR10+.BluRay.EAC3.2CH.x265.Hun

Recommended Posts

Carlito útja (Carlito's Way) 1993.2160p.10bit.HDR10+.BluRay.EAC3.2CH.x265
szinkronizált, amerikai krimi, 145 perc, 4.9 Gb

carlitos.jpg

4k-ultra-hd_-_tv.png

hdr10x265.png

Legendás alak tér vissza a spanyol Harlembe. De az utca már nem a régi, és Carlito sem az. Az öt év börtön alatt sokat tanult, le akarja zárni a múltat és új életet kezdeni szerelmével. Legjobb barátja csak egy apró szívességet kér tőle...

RENDEZŐ: Brian De Palma
ÍRÓ: Edwin Torres
FORGATÓKÖNYVÍRÓ: David Koepp
ZENE: Patrick Doyle
SZEREPLŐK: Al Pacino, Sean Penn, Viggo Mortensen, Paul Mazursky, John Leguizamo, Jon Seda, John Finn, Penelope Ann Miller

Spoiler

 

Video
ID                          : 1
Format                      : HEVC
Format/Info                 : High Efficiency Video Coding
Format profile              : Main 10@L5.1@High
HDR format                  : SMPTE ST 2094 App 4, Version 1, HDR10+ Profile B compatible
Codec ID                    : V_MPEGH/ISO/HEVC
Duration                    : 2 h 24 min
Bit rate                    : 4 246 kb/s
Width                       : 3 840 pixels
Height                      : 1 632 pixels
Display aspect ratio        : 2.35:1
Frame rate mode             : Constant
Frame rate                  : 23.976 (24000/1001) FPS
Color space                 : YUV
Chroma subsampling          : 4:2:0 (Type 2)
Bit depth                   : 10 bits
Bits/(Pixel*Frame)          : 0.028
Stream size                 : 4.27 GiB (94%)
Default                     : Yes
Forced                      : No
Color range                 : Limited
Color primaries             : BT.2020
Transfer characteristics    : PQ
Matrix coefficients         : BT.2020 non-constant
Mastering display color pri : Display P3
Mastering display luminance : min: 0.0050 cd/m2, max: 1000 cd/m2
Maximum Content Light Level : 933 cd/m2
Maximum Frame-Average Light : 84 cd/m2

Audio
ID                          : 2
Format                      : E-AC-3
Format/Info                 : Enhanced AC-3
Commercial name             : Dolby Digital Plus
Codec ID                    : A_EAC3
Duration                    : 2 h 24 min
Bit rate mode               : Constant
Bit rate                    : 256 kb/s
Channel(s)                  : 2 channels
Channel layout              : L R
Sampling rate               : 48.0 kHz
Frame rate                  : 31.250 FPS (1536 SPF)
Compression mode            : Lossy
Stream size                 : 264 MiB (6%)
Language                    : Hungarian
Service kind                : Complete Main
Default                     : Yes
Forced                      : No

 

Hidden Content

    Give reaction or reply to this topic to see the hidden content.

 

  • Like 2
  • Thanks 3

Share this post


Link to post
Share on other sites
Sign in to follow this  

  • Recently Browsing   0 members

    No registered users viewing this page.

×