Jump to content
PirateClub.hu
Sign in to follow this  
ninoel

A nyomozás (Efterforskningen-The Investigation)2020.1080p.10bit.BluRay.EAC3.2CH.x265.Hun T évad

Recommended Posts

A nyomozás (Efterforskningen-The Investigation)2020.1080p.10bit.BluRay.EAC3.2CH.x265
szinkronizált, svéd krimi-dráma, misztikus sorozat, 44 perc, 390 Mb/rész

investigation.jpg

1080p-10bit-3v.png

hevc_265_hu_2.jpg

A koppenhágai rendőrség Kim Wall, svéd újságíró gyilkossági ügyében nyomoz.

RENDEZŐ: Tobias Lindholm
FORGATÓKÖNYVÍRÓ: Tobias Lindholm
ZENE: Rune Tonsgaard Sørensen
SZEREPLŐK: Pilou Asbæk, Pernilla August, Rolf Lassgård, Søren Malling, Laura Christensen, Gerda Lie Kaas, Anders Juul

Spoiler

 

Video
ID                          : 1
Format                      : HEVC
Format/Info                 : High Efficiency Video Coding
Format profile              : Main 10@L5.1@High
Codec ID                    : V_MPEGH/ISO/HEVC
Duration                    : 44 min 52 s
Bit rate                    : 1 068 kb/s
Width                       : 1 920 pixels
Height                      : 960 pixels
Display aspect ratio        : 2.000
Frame rate mode             : Constant
Frame rate                  : 25.000 FPS
Color space                 : YUV
Chroma subsampling          : 4:2:0
Bit depth                   : 10 bits
Bits/(Pixel*Frame)          : 0.023
Stream size                 : 343 MiB (92%)
Default                     : Yes
Forced                      : No
Color range                 : Limited
Matrix coefficients         : BT.709

Audio
ID                          : 2
Format                      : E-AC-3
Format/Info                 : Enhanced AC-3
Commercial name             : Dolby Digital Plus
Codec ID                    : A_EAC3
Duration                    : 44 min 52 s
Bit rate mode               : Constant
Bit rate                    : 96.0 kb/s
Channel(s)                  : 2 channels
Channel layout              : L R
Sampling rate               : 48.0 kHz
Frame rate                  : 31.250 FPS (1536 SPF)
Compression mode            : Lossy
Stream size                 : 30.8 MiB (8%)
Language                    : Hungarian
Service kind                : Complete Main
Default                     : Yes
Forced                      : No

 

Hidden Content

    Give reaction or reply to this topic to see the hidden content.


 

  • Like 3
  • Thanks 9

Share this post


Link to post
Share on other sites

A nyomozás (Efterforskningen-The Investigation)2020.1080p.10bit.BluRay.EAC3.2CH.x265  6. rész

  • Like 2
  • Thanks 6

Share this post


Link to post
Share on other sites
Sign in to follow this  

  • Recently Browsing   0 members

    No registered users viewing this page.

×