Jump to content
PirateClub.hu
Sign in to follow this  
ninoel

Foundation.2021.2160p.10bit.HDR.WEBRip.6CH.x265.HunSub T évad

Recommended Posts

Foundation.2021.2160p.10bit.HDR.WEBRip.6CH.x265.HunSub
magyar feliratos, sci-fi sorozat, 60 perc, 1 Gb/rész

fundation.jpg

4k-ultra-hd_-_tv.png

hdr10x265.png

Isaac Asimov klasszikus regényfolyama nyomán. Egy tudósokból álló csoport egy új társadalmat készül létrehozni, miután sikerült
megjósolni a Galaktikus Birodalom összeomlását.

RENDEZŐ: Rupert Sanders
FORGATÓKÖNYVÍRÓ: Isaac Asimov, Lauren Bello, Leigh Dana Jackson
SZEREPLŐK: Lee Pace, Jared Harris, Terrence Mann, Mido Hamada, Laura Birn, Geoffrey Cantor, Cassian Bilton, Leah Ferguson

Spoiler

 

Video
ID                          : 1
Format                      : HEVC
Format/Info                 : High Efficiency Video Coding
Format profile              : Main 10@L5@Main
HDR format                  : SMPTE ST 2086, HDR10 compatible
Codec ID                    : V_MPEGH/ISO/HEVC
Duration                    : 1 h 9 min
Bit rate                    : 1 905 kb/s
Width                       : 3 840 pixels
Height                      : 1 920 pixels
Display aspect ratio        : 2.000
Frame rate mode             : Constant
Frame rate                  : 23.976 (24000/1001) FPS
Color space                 : YUV
Chroma subsampling          : 4:2:0 (Type 2)
Bit depth                   : 10 bits
Bits/(Pixel*Frame)          : 0.011
Stream size                 : 944 MiB (90%)
Default                     : Yes
Forced                      : No
Color range                 : Limited
Color primaries             : BT.2020
Transfer characteristics    : PQ
Matrix coefficients         : BT.2020 non-constant
Mastering display color pri : Display P3
Mastering display luminance : min: 0.0050 cd/m2, max: 1000 cd/m2
Maximum Content Light Level : 2666 cd/m2
Maximum Frame-Average Light : 1008 cd/m2

Audio
ID                          : 2
Format                      : AAC LC SBR
Format/Info                 : Advanced Audio Codec Low Complexity with Spectral Band Replication
Commercial name             : HE-AAC
Format settings             : Explicit
Codec ID                    : A_AAC-2
Duration                    : 1 h 9 min
Bit rate                    : 204 kb/s
Channel(s)                  : 6 channels
Channel layout              : C L R Ls Rs LFE
Sampling rate               : 48.0 kHz
Frame rate                  : 23.438 FPS (2048 SPF)
Compression mode            : Lossy
Delay relative to video     : 23 ms
Stream size                 : 101 MiB (10%)
Language                    : English
Default                     : Yes
Forced                      : No

Text
ID                          : 3
Format                      : UTF-8
Codec ID                    : S_TEXT/UTF8
Codec ID/Info               : UTF-8 Plain Text
Duration                    : 1 h 0 min
Bit rate                    : 47 b/s
Count of elements           : 641
Stream size                 : 21.0 KiB (0%)
Title                       : Hungarian
Language                    : Hungarian
Default                     : Yes
Forced                      : No

 

Hidden Content

    Give reaction or reply to this topic to see the hidden content.


 

  • Like 3
  • Thanks 14

Share this post


Link to post
Share on other sites

Foundation.2021.2160p.10bit.HDR.WEBRip.6CH.x265.HunSub  10. rész

  • Thanks 3

Share this post


Link to post
Share on other sites
Sign in to follow this  

  • Recently Browsing   0 members

    No registered users viewing this page.

×