Jump to content
PirateClub.hu
ninoel

Roswell - New Mexico.2019.720p.WEBRip.x265.Hun 3. évad

Recommended Posts

Roswell - New Mexico.2019.720p.WEBRip.x265.Hun 3. évad
amerikai romantikus dráma, sci-fi sorozat, 45 perc, 220 Mb

Roswell-New-Mexico-show.jpg

720p_Full_HD_v.2.png

hevc_265_hu_2.jpg

Az 1999-es sorozat rebootja. Liz Ortecho a beteg apja miatt visszatér Roswellbe, melynek tíz esztendővel ezelőtt, a nővére halála után fordított hátat. Liz találkozik gyerekkori szerelmével, Maxszel, aki rendőrként dolgozik. Hamarosan rájön, hogy Max és két testvére földönkívüliek, különleges képességekkel megáldva. A lánynak nehézséget okoz megőrizni ezt a titkot a barátai előtt. Ám a titkos kormányzati összeesküvés azzal fenyeget, hogy veszélybe sodorja Maxot és családját - és Lizt is.

RENDEZŐ: Lance Anderson, Jeffrey G. Hunt
FORGATÓKÖNYVÍRÓ: Carina Adly MacKenzie, Eva McKenna, Danny Tolli
ZENE: Dennis Smith, Michael Suby
SZEREPLŐK: Heather Hemmens, Tyler Blackburn, Nathan Parsons, Claudia Black, Sherri Saum, Dylan McTee, Jason Behr, Gaius Charles

Spoiler

 

Video
ID                          : 1
Format                      : HEVC
Format/Info                 : High Efficiency Video Coding
Format profile              : Main@L3.1@Main
Codec ID                    : V_MPEGH/ISO/HEVC
Duration                    : 42 min 23 s
Bit rate                    : 585 kb/s
Width                       : 1 280 pixels
Height                      : 720 pixels
Display aspect ratio        : 16:9
Frame rate mode             : Constant
Frame rate                  : 23.976 (24000/1001) FPS
Color space                 : YUV
Chroma subsampling          : 4:2:0
Bit depth                   : 8 bits
Bits/(Pixel*Frame)          : 0.026
Stream size                 : 177 MiB (90%)
Default                     : Yes
Forced                      : No
Color range                 : Limited
Color primaries             : BT.709
Transfer characteristics    : BT.709
Matrix coefficients         : BT.709

Audio
ID                          : 2
Format                      : AAC LC SBR
Format/Info                 : Advanced Audio Codec Low Complexity with Spectral Band Replication
Commercial name             : HE-AAC
Format settings             : Explicit
Codec ID                    : A_AAC-2
Duration                    : 42 min 23 s
Bit rate                    : 62.7 kb/s
Channel(s)                  : 2 channels
Channel layout              : L R
Sampling rate               : 48.0 kHz
Frame rate                  : 23.438 FPS (2048 SPF)
Compression mode            : Lossy
Stream size                 : 19.0 MiB (10%)
Language                    : Hungarian
Default                     : Yes
Forced                      : No

 

3. évad

Hidden Content

    Give reaction or reply to this topic to see the hidden content.

 

  • Like 7
  • Thanks 12

Share this post


Link to post
Share on other sites

Roswell - New Mexico.2019.720p.WEBRip.x265.Hun 3. évad  11. rész.

  • Like 1
  • Thanks 5

Share this post


Link to post
Share on other sites

  • Recently Browsing   0 members

    No registered users viewing this page.

×