Jump to content
PirateClub.hu
Sign in to follow this  
ninoel

Roswell - New Mexico.2019.720p.WEBRip.x264.Hun 2.T 3. évad

Recommended Posts

Roswell - New Mexico.2019.720p.WEBRip.x264.Hun 2.T 3. évad
amerikai romantikus dráma, sci-fi sorozat, 45 perc, 420 Mb

Roswell-New-Mexico-show.jpg

x264_Logo.png

720p_Full_HD_v.2.png

Az 1999-es sorozat rebootja. Liz Ortecho a beteg apja miatt visszatér Roswellbe, melynek tíz esztendővel ezelőtt, a nővére halála után fordított hátat. Liz találkozik gyerekkori szerelmével, Maxszel, aki rendőrként dolgozik. Hamarosan rájön, hogy Max és két testvére földönkívüliek, különleges képességekkel megáldva. A lánynak nehézséget okoz megőrizni ezt a titkot a barátai előtt. Ám a titkos kormányzati összeesküvés azzal fenyeget, hogy veszélybe sodorja Maxot és családját - és Lizt is.

RENDEZŐ: Lance Anderson, Jeffrey G. Hunt
FORGATÓKÖNYVÍRÓ: Carina Adly MacKenzie, Eva McKenna, Danny Tolli
ZENE: Dennis Smith, Michael Suby
SZEREPLŐK: Heather Hemmens, Tyler Blackburn, Nathan Parsons, Claudia Black, Sherri Saum, Dylan McTee, Jason Behr, Gaius Charles

Spoiler

 

Video
ID                          : 1
Format                      : AVC
Format/Info                 : Advanced Video Codec
Format profile              : High@L3.1
Format settings             : CABAC / 4 Ref Frames
Format settings, CABAC      : Yes
Format settings, Reference  : 4 frames
Codec ID                    : avc1
Codec ID/Info               : Advanced Video Coding
Duration                    : 42 min 25 s
Bit rate                    : 1 200 kb/s
Maximum bit rate            : 6 495 kb/s
Width                       : 1 280 pixels
Height                      : 720 pixels
Display aspect ratio        : 16:9
Frame rate mode             : Constant
Frame rate                  : 23.976 (24000/1001) FPS
Color space                 : YUV
Chroma subsampling          : 4:2:0
Bit depth                   : 8 bits
Scan type                   : Progressive
Bits/(Pixel*Frame)          : 0.054
Stream size                 : 364 MiB (91%)
Writing library             : x264 core 164 r3065+9 7a0e6e8 [Mod by Patman]
Color range                 : Limited
Color primaries             : BT.709
Transfer characteristics    : BT.709
Matrix coefficients         : BT.709
Codec configuration box     : avcC

Audio
ID                          : 2
Format                      : AAC LC
Format/Info                 : Advanced Audio Codec Low Complexity
Codec ID                    : mp4a-40-2
Duration                    : 42 min 25 s
Bit rate mode               : Variable
Bit rate                    : 110 kb/s
Maximum bit rate            : 167 kb/s
Channel(s)                  : 2 channels
Channel layout              : L R
Sampling rate               : 48.0 kHz
Frame rate                  : 46.875 FPS (1024 SPF)
Compression mode            : Lossy
Stream size                 : 33.3 MiB (8%)
Language                    : Hungarian
Encoded date                : UTC 2021-09-23 12:03:20
Tagged date                 : UTC 2021-09-23 12:14:29

 

2. évad

Hidden Content

    Give reaction or reply to this topic to see the hidden content.

3. évad

Hidden Content

    Give reaction or reply to this topic to see the hidden content.

 

  • Like 6
  • Thanks 10

Share this post


Link to post
Share on other sites

Roswell - New Mexico.2019.720p.WEBRip.x264.Hun 3. évad  12. rész.

  • Like 2
  • Thanks 4

Share this post


Link to post
Share on other sites
Sign in to follow this  

  • Recently Browsing   0 members

    No registered users viewing this page.

×