Jump to content
PirateClub.hu
Sign in to follow this  
ninoel

Séfek séfe 3.2021.720p.10bit.WEB-DL.x265 / 576p.x264 T évad

Recommended Posts

Séfek séfe 3.2021.720p.10bit.WEB-DL.x265 / 576p.x264
magyar gasztro-reality, 90 perc, 530 Mb/ 790Mb

sefek-sefe-2.png

720p_10bit.png

hevc_265_hu_2.jpg

A formátum eredetije a Game of Chefs, amely a TV2 képernyőjén Séfek séfe címmel kerül adásba. A gasztro-tehetségkutatóban amatőr és profi szakácsok próbálják meggyőzni a műsor három profi séfjét, Wolf Andrást, Vomberg Frigyest és Krausz Gábort. Bárki jelentkezhetett, aki elmúlt 16 éves. Amatőrök és szakmabeliek egyaránt lehetőséget kaptak arra, hogy megmérettessék magukat a konyhában.

Spoiler

 

Video
ID                          : 1
Format                      : HEVC
Format/Info                 : High Efficiency Video Coding
Format profile              : Main 10@L4@High
Codec ID                    : V_MPEGH/ISO/HEVC
Duration                    : 1 h 32 min
Bit rate                    : 693 kb/s
Width                       : 1 280 pixels
Height                      : 720 pixels
Display aspect ratio        : 16:9
Frame rate mode             : Constant
Frame rate                  : 30.000 FPS
Color space                 : YUV
Chroma subsampling          : 4:2:0
Bit depth                   : 10 bits
Bits/(Pixel*Frame)          : 0.025
Stream size                 : 458 MiB (89%)
Default                     : Yes
Forced                      : No
Color range                 : Limited
Color primaries             : BT.709
Transfer characteristics    : BT.709
Matrix coefficients         : BT.709

Audio
ID                          : 2
Format                      : AAC LC SBR
Format/Info                 : Advanced Audio Codec Low Complexity with Spectral Band Replication
Commercial name             : HE-AAC
Format settings             : Explicit
Codec ID                    : A_AAC-2
Duration                    : 1 h 32 min
Bit rate                    : 79.5 kb/s
Channel(s)                  : 2 channels
Channel layout              : L R
Sampling rate               : 48.0 kHz
Frame rate                  : 23.438 FPS (2048 SPF)
Compression mode            : Lossy
Delay relative to video     : 40 ms
Stream size                 : 52.5 MiB (10%)
Language                    : Hungarian
Default                     : Yes
Forced                      : No

 

Hidden Content

    Give reaction or reply to this topic to see the hidden content.

 

x264_Logo.png

Spoiler

 

Video
ID                          : 1
Format                      : AVC
Format/Info                 : Advanced Video Codec
Format profile              : High@L3
Format settings             : CABAC / 4 Ref Frames
Format settings, CABAC      : Yes
Format settings, Reference  : 4 frames
Codec ID                    : avc1
Codec ID/Info               : Advanced Video Coding
Duration                    : 1 h 32 min
Bit rate                    : 1 024 kb/s
Maximum bit rate            : 4 180 kb/s
Width                       : 720 pixels
Height                      : 408 pixels
Display aspect ratio        : 16:9
Frame rate mode             : Constant
Frame rate                  : 30.000 FPS
Color space                 : YUV
Chroma subsampling          : 4:2:0
Bit depth                   : 8 bits
Scan type                   : Progressive
Bits/(Pixel*Frame)          : 0.116
Stream size                 : 676 MiB (90%)
Title                       : Séfek séfe.S03E01.2021.WEB-DL.x264
Color range                 : Limited
Color primaries             : BT.709
Transfer characteristics    : BT.709
Matrix coefficients         : BT.709
Codec configuration box     : avcC

Audio
ID                          : 2
Format                      : AAC LC
Format/Info                 : Advanced Audio Codec Low Complexity
Codec ID                    : mp4a-40-2
Duration                    : 1 h 32 min
Bit rate mode               : Variable
Bit rate                    : 111 kb/s
Maximum bit rate            : 157 kb/s
Channel(s)                  : 2 channels
Channel layout              : L R
Sampling rate               : 48.0 kHz
Frame rate                  : 46.875 FPS (1024 SPF)
Compression mode            : Lossy
Stream size                 : 73.6 MiB (10%)
Language                    : Hungarian
Default                     : Yes
Alternate group             : 1
Encoded date                : UTC 2021-09-21 15:13:16
Tagged date                 : UTC 2021-09-21 15:36:32

 

Hidden Content

    Give reaction or reply to this topic to see the hidden content.

 

  • Like 8
  • Thanks 12

Share this post


Link to post
Share on other sites

Séfek séfe 3.2021.720p.10bit.WEB-DL.x265 / 576p.x264  25. rész.

  • Like 3
  • Thanks 5

Share this post


Link to post
Share on other sites
Sign in to follow this  

  • Recently Browsing   0 members

    No registered users viewing this page.

×