Jump to content
PirateClub.hu
ninoel

Maigret. 1991-.720p.10bit.HDTv.x265.Hun

Recommended Posts

Maigret. 1991-.720p.10bit.HDTv.x265
szinkronizált, francia tévéfilmsorozat, 90 perc, 500 Mb/rész

maigret-v2.jpg

720p.png

hevc_265_hu_2.jpg

Rengetegen belebújtak Maigret felügyelő szerepébe azóta, hogy Georges Simenon belga író kitalálta és népszerűvé tette a figuráját. Az állandóan pipázó nyomozó összesen 75 regényben és 28 novellában bukkant fel, amelyek 1931 és 1972 között jelentek meg.A tévében kétségkívül a 2010-ben elhunyt Bruno Cremer volt Maigret egyik leghitelesebb alakítója. A vele készült sorozatot 1991 és 2004 között forgatták.

Rendező: Pierre Granier-Deferre
Forgatókönyvíró: Pierre Granier-Deferre
Michel Grisolia
Pierre Joassin
Operatőr: Vladimír Smutný
Zene: Laurent Petitgirard

Szereplők:
Bruno Cremer
Pascale Arbillot
Georges Siatidis
Michel Guillou
Florence Hebbelynck

Spoiler

 

Video
ID                          : 1
Format                      : HEVC
Format/Info                 : High Efficiency Video Coding
Format profile              : Main 10@L5.1@High
Codec ID                    : V_MPEGH/ISO/HEVC
Duration                    : 1 h 35 min
Bit rate                    : 597 kb/s
Width                       : 1 280 pixels
Height                      : 720 pixels
Display aspect ratio        : 16:9
Frame rate mode             : Constant
Frame rate                  : 25.000 FPS
Color space                 : YUV
Chroma subsampling          : 4:2:0
Bit depth                   : 10 bits
Bits/(Pixel*Frame)          : 0.026
Stream size                 : 406 MiB (90%)
Default                     : Yes
Forced                      : No
Color range                 : Limited
Color primaries             : BT.709
Transfer characteristics    : BT.709
Matrix coefficients         : BT.709

Audio
ID                          : 2
Format                      : AAC LC SBR
Format/Info                 : Advanced Audio Codec Low Complexity with Spectral Band Replication
Commercial name             : HE-AAC
Format settings             : Explicit
Codec ID                    : A_AAC-2
Duration                    : 1 h 35 min
Bit rate                    : 62.7 kb/s
Channel(s)                  : 2 channels
Channel layout              : L R
Sampling rate               : 48.0 kHz
Frame rate                  : 23.438 FPS (2048 SPF)
Compression mode            : Lossy
Stream size                 : 42.7 MiB (9%)
Language                    : Hungarian
Default                     : Yes
Forced                      : No

 

E01-Maigret-A nyakigláb cica

Hidden Content

    Give reaction or reply to this topic to see the hidden content.

E16-Maigret és az idős hölgy

Hidden Content

    Give reaction or reply to this topic to see the hidden content.

E17-Maigret-Árverés

Hidden Content

    Give reaction or reply to this topic to see the hidden content.

E18-Maigret szabadságon

Hidden Content

    Give reaction or reply to this topic to see the hidden content.

E19-Maigret-A Saint Fiacre ügy

Hidden Content

    Give reaction or reply to this topic to see the hidden content.

E20- Maigret-Ködös kikötő

Hidden Content

    Give reaction or reply to this topic to see the hidden content.

E22-Maigret Finnországban

Hidden Content

    Give reaction or reply to this topic to see the hidden content.

E23-Maigret csapdát állít

Hidden Content

    Give reaction or reply to this topic to see the hidden content.

E24-Maigret fél

Hidden Content

    Give reaction or reply to this topic to see the hidden content.

E04-Maigret és az éjszaka örömei

Hidden Content

    Give reaction or reply to this topic to see the hidden content.

E25-Maigret gyanút fog

Hidden Content

    Give reaction or reply to this topic to see the hidden content.

E26-Maigret-Liberty bár

Hidden Content

    Give reaction or reply to this topic to see the hidden content.

E02-Maigret a flamandoknál

Hidden Content

    Give reaction or reply to this topic to see the hidden content.

E03-Maigret és a bíró háza

Hidden Content

    Give reaction or reply to this topic to see the hidden content.

E05-Maigret és a fejnélküli tetem

Hidden Content

    Give reaction or reply to this topic to see the hidden content.

E27-Maigret szabadságone

Hidden Content

    Give reaction or reply to this topic to see the hidden content.

E28-Maigret és a kiugrott felügyelő

Hidden Content

    Give reaction or reply to this topic to see the hidden content.

 

  • Like 3
  • Thanks 8

Share this post


Link to post
Share on other sites

Maigret. 1991-.720p.10bit.HDTv.x265  03. 5. 27. 28. rész.

  • Like 1
  • Thanks 5

Share this post


Link to post
Share on other sites

  • Recently Browsing   0 members

    No registered users viewing this page.

×