Jump to content
PirateClub.hu
Sign in to follow this  
ninoel

Mortal Kombat.2021.2160p.10bit.HDR.BluRay.8CH.x265.HunSub

Recommended Posts

Mortal Kombat.2021.2160p.10bit.HDR.BluRay.8CH.x265.HunSub
magyar feliratos, kanadai-amerikai fantasztikus akciófilm, kalandfilm, 110 perc, 3.1 Gb

mortal-kombat.jpg

4k-ultra-hd_-_tv.png

hdr10x265.png

Van, aki abból él, hogy bírja, ha ütik. Cole Young (Lewis Tan) ilyen. Pénzért bunyózik, és többnyire veszít. Nem tudja, hogy mennyivel többre hivatott, és milyen sok múlik rajta. Pedig csak el kellene gondolkodnia különös, sárkány alakú anyajegyén… A Külvidék császára elküldte legjobb harcosát, Sub-Zerót, hogy legyőzze a Földvilág harcosait. Már kilenc bajnokságon győztek: ha tizedszer is diadalmaskodnak, akkor birodalmukhoz csatolhatják a legyőzött világot. És megindul az ostrom. Cole nem nagyon érti, mi történik vele. Csak azt látja, hogy furcsábbnál furcsább vidékekre vetődik, egyre különösebb erejű, hatalmú és humorú harcosokkal találja szemben magát, és küzdenie kell. De most elképesztő tétje van a meccsnek… az egész világ.

RENDEZŐ: Simon McQuoid
FORGATÓKÖNYVÍRÓ: Greg Russo, Dave Callaham, Oren Uziel, Ed Boon
ZENE: Benjamin Wallfisch
SZEREPLŐK: Jessica McNamee, Hiroyuki Sanada, Damon Herriman, Tadanobu Asano, Mehcad Brooks, Josh Lawson, Joe Taslim

Spoiler

 

Video
ID                          : 1
Format                      : HEVC
Format/Info                 : High Efficiency Video Coding
Format profile              : Main 10@L5@Main
HDR format                  : SMPTE ST 2086, HDR10 compatible
Codec ID                    : V_MPEGH/ISO/HEVC
Duration                    : 1 h 50 min
Bit rate                    : 3 536 kb/s
Width                       : 3 840 pixels
Height                      : 1 616 pixels
Display aspect ratio        : 2.40:1
Frame rate mode             : Constant
Frame rate                  : 23.976 (24000/1001) FPS
Color space                 : YUV
Chroma subsampling          : 4:2:0 (Type 2)
Bit depth                   : 10 bits
Bits/(Pixel*Frame)          : 0.024
Stream size                 : 2.72 GiB (92%)
Default                     : Yes
Forced                      : No
Color range                 : Limited
Color primaries             : BT.2020
Transfer characteristics    : PQ
Matrix coefficients         : BT.2020 non-constant
Mastering display color pri : Display P3
Mastering display luminance : min: 0.0001 cd/m2, max: 1000 cd/m2
Maximum Content Light Level : 825 cd/m2
Maximum Frame-Average Light : 118 cd/m2

Audio
ID                          : 2
Format                      : AAC LC SBR
Format/Info                 : Advanced Audio Codec Low Complexity with Spectral Band Replication
Commercial name             : HE-AAC
Format settings             : Explicit
Codec ID                    : A_AAC-2
Duration                    : 1 h 50 min
Bit rate                    : 307 kb/s
Channel(s)                  : 8 channels
Channel layout              : C L R Ls Rs Lw Rw LFE
Sampling rate               : 48.0 kHz
Frame rate                  : 23.438 FPS (2048 SPF)
Compression mode            : Lossy
Delay relative to video     : 31 ms
Stream size                 : 242 MiB (8%)
Language                    : English
Default                     : Yes
Forced                      : No

Text
ID                          : 3
Format                      : UTF-8
Codec ID                    : S_TEXT/UTF8
Codec ID/Info               : UTF-8 Plain Text
Duration                    : 1 h 38 min
Bit rate                    : 38 b/s
Count of elements           : 696
Stream size                 : 27.5 KiB (0%)
Language                    : Hungarian
Default                     : Yes
Forced                      : No

 

Hidden Content

    Give reaction or reply to this topic to see the hidden content.

 

  • Like 1
  • Thanks 1

Share this post


Link to post
Share on other sites
Sign in to follow this  

  • Recently Browsing   0 members

    No registered users viewing this page.

×