Jump to content
PirateClub.hu
Sign in to follow this  
ninoel

Szabadon (Intemperie /Out.In.The.Open/) 2019.1080p.10bit.BluRay.6CH.x265.Hun

Recommended Posts

Szabadon (Intemperie /Out.In.The.Open/) 2019.1080p.10bit.BluRay.6CH.x265
szinkronizált, portugál-spanyol thriller, kalandfilm, 103 perc, 1 Gb

szabadon.jpg

1080p-10bit-3v.png

hevc_265_hu_2.jpg

A film 1946-ban játszódik Spanyolországban, a polgárháború után, amely kétségbeesésbe és szegénységbe taszította az országot. Egy fiúcska egyre csak menekül, vissza sem mer nézni, mert egy csapat üldözi kutyákkal, és a könyörtelen falusi elöljáróval az élen. A hajtóvadászat elől egy víznyelőben bujkál, majd onnan is tovább kell állnia, hogy átszelje a kietlen síkságot, és üldözői ne bukkanhassanak a nyomára. Útközben találkozik egy kecskepásztorral, ami sorsfordító találkozásnak bizonyul. Az aszály és erőszak sújtotta vidéken a pásztor és a fiú eleinte bizalmatlanok egymással szemben, de szép lassan valódi kapcsolat kezd kialakulni közöttük. A fiúnak meg kell tanulnia, hogy ne bízzon minden felnőttben, a kecskepásztornak pedig újra hozzá kell szoknia egy másik emberről való gondoskodáshoz.

RENDEZŐ: Benito Zambrano
ÍRÓ: Jesús Carrasco
FORGATÓKÖNYVÍRÓ: Daniel Remón, Pablo Remón, Benito Zambrano
ZENE: Mikel Salas
SZEREPLŐK: Luis Tosar, Luis Callejo, Kandido Uranga, Vicente Romero, Manolo Caro, Mona Martínez, Adriano Carvalho

Spoiler

 

Video
ID                          : 1
Format                      : HEVC
Format/Info                 : High Efficiency Video Coding
Format profile              : Main 10@L5.1@High
Codec ID                    : V_MPEGH/ISO/HEVC
Duration                    : 1 h 43 min
Bit rate                    : 1 081 kb/s
Width                       : 1 920 pixels
Height                      : 800 pixels
Display aspect ratio        : 2.40:1
Frame rate mode             : Constant
Frame rate                  : 24.000 FPS
Color space                 : YUV
Chroma subsampling          : 4:2:0
Bit depth                   : 10 bits
Bits/(Pixel*Frame)          : 0.029
Stream size                 : 798 MiB (77%)
Default                     : Yes
Forced                      : No

Audio
ID                          : 2
Format                      : AAC LC
Format/Info                 : Advanced Audio Codec Low Complexity
Codec ID                    : A_AAC-2
Duration                    : 1 h 43 min
Bit rate                    : 313 kb/s
Channel(s)                  : 6 channels
Channel layout              : C L R Ls Rs LFE
Sampling rate               : 48.0 kHz
Frame rate                  : 46.875 FPS (1024 SPF)
Compression mode            : Lossy
Delay relative to video     : 20 ms
Stream size                 : 231 MiB (22%)
Language                    : Hungarian
Default                     : No
Forced                      : No

 

Hidden Content

    Give reaction or reply to this topic to see the hidden content.

 

  • Like 3
  • Thanks 1

Share this post


Link to post
Share on other sites
Sign in to follow this  

  • Recently Browsing   0 members

    No registered users viewing this page.

×