Jump to content
PirateClub.hu
Sign in to follow this  
ninoel

Hang nélkül 2.(A Quiet Place 2) 2020.2160p.10bit.HDR.BluRay.6CH.x265.Hun

Recommended Posts

Hang nélkül 2.(A Quiet Place 2) 2020.2160p.10bit.HDR.BluRay.6CH.x265
szinkronizált, amerikai horror, 97 perc, 3.6 Gb

quiet-II.jpg

4k-ultra-hd_-_tv.png

hdr10x265.png

Az otthonukban történt halálos eseményeket követően az Abbott családnak a külvilág borzalmaival kell szembesülnie, miközben tovább küzdenek a túlélésért – a legnagyobb csendben. Miután arra kényszerülnek, hogy nekivágjanak az ismeretlennek, gyorsan ráeszmélnek, hogy nem csak a hangra vadászó szörnyek jelentenek fenyegetést a homokösvényen túl...

RENDEZŐ: John Krasinski
ÍRÓ: John Krasinski
FORGATÓKÖNYVÍRÓ: Scott Beck, Bryan Woods
ZENE: Marco Beltrami
SZEREPLŐK: Emily Blunt, Cillian Murphy, John Krasinski, Djimon Hounsou, Noah Jupe, Millicent Simmonds, Scoot McNairy

Spoiler

 

Video
ID                          : 1
Format                      : HEVC
Format/Info                 : High Efficiency Video Coding
Format profile              : Main 10@L5@Main
HDR format                  : SMPTE ST 2086, HDR10 compatible
Codec ID                    : V_MPEGH/ISO/HEVC
Duration                    : 1 h 37 min
Bit rate                    : 4 840 kb/s
Width                       : 3 840 pixels
Height                      : 1 608 pixels
Display aspect ratio        : 2.40:1
Frame rate mode             : Constant
Frame rate                  : 23.976 (24000/1001) FPS
Color space                 : YUV
Chroma subsampling          : 4:2:0 (Type 2)
Bit depth                   : 10 bits
Bits/(Pixel*Frame)          : 0.033
Stream size                 : 3.28 GiB (96%)
Default                     : Yes
Forced                      : No
Color range                 : Limited
Color primaries             : BT.2020
Transfer characteristics    : PQ
Matrix coefficients         : BT.2020 non-constant
Mastering display color pri : Display P3
Mastering display luminance : min: 0.0050 cd/m2, max: 4000 cd/m2
Maximum Content Light Level : 1000 cd/m2
Maximum Frame-Average Light : 216 cd/m2

Audio
ID                          : 2
Format                      : AAC LC SBR
Format/Info                 : Advanced Audio Codec Low Complexity with Spectral Band Replication
Commercial name             : HE-AAC
Format settings             : Explicit
Codec ID                    : A_AAC-2
Duration                    : 1 h 37 min
Bit rate                    : 204 kb/s
Channel(s)                  : 6 channels
Channel layout              : C L R Ls Rs LFE
Sampling rate               : 48.0 kHz
Frame rate                  : 23.438 FPS (2048 SPF)
Compression mode            : Lossy
Stream size                 : 141 MiB (4%)
Language                    : Hungarian
Default                     : Yes
Forced                      : No

 

Hidden Content

    Give reaction or reply to this topic to see the hidden content.

 

  • Like 2
  • Thanks 2

Share this post


Link to post
Share on other sites
Sign in to follow this  

  • Recently Browsing   0 members

    No registered users viewing this page.

×