Jump to content
PirateClub.hu
Sign in to follow this  
ninoel

George Gently. 2007-.576p.2ch.x264 1.T 2.T 3.T 4.T 5.T 6.T 7.T évad

Recommended Posts

George Gently. 2007-.576p.2ch.x264 
szinkronizált, angol krimisorozat, 89 perc, 750 Mb/rész

g-gantly.jpg

x264_Logo.png

Alan Hunter regénysorozatán alapuló filmdráma, mely az 1960-as években játszódik. George Gently felügyelő (Martin Shaw) feleségét egy gengszter megöli, mire a férfi arra kényszerül, hogy meggondolja nyugdíjba vonulását. Amikor ráébred, hogy a bűnözés még mindig burjánzik, és az ő segítségére is szükség van, Gently összeáll DS John Bacchusszal (Lee Ingleby), hogy felgöngyölítsék a Northumberland és Durham megyében zajló gyilkosságokat. Az igazság kiderítésével saját démonjait is temeti.

RENDEZŐ: Ciaran Donnelly, Daniel O\'Hara
FORGATÓKÖNYVÍRÓ: Peter Flannery, Alan Hunter, Mick Ford, Timothy Prager
ZENE: Ray Harman, Mark Russell, John E. Keane
SZEREPLŐK: Richard Armitage, Jodie Comer, Mark Gatiss, Shaun Evans, Christian Cooke, Andrew-Lee Potts, Mark Williams

ID                          : 1
Format                      : AVC
Format/Info                 : Advanced Video Codec
Format profile              : Main@L4
Format settings             : CABAC / 4 Ref Frames
Format settings, CABAC      : Yes
Format settings, Reference  : 4 frames
Codec ID                    : V_MPEG4/ISO/AVC
Duration                    : 1 h 29 min
Bit rate                    : 1 000 kb/s
Width                       : 716 pixels
Height                      : 576 pixels
Display aspect ratio        : 16:9
Original display aspect rat : 16:9
Frame rate mode             : Constant
Frame rate                  : 25.000 FPS
Color space                 : YUV
Chroma subsampling          : 4:2:0
Bit depth                   : 8 bits
Scan type                   : Progressive
Bits/(Pixel*Frame)          : 0.097
Stream size                 : 637 MiB (90%)
Writing library             : x264 core 155 r2901 7d0ff22
Color range                 : Limited
Color primaries             : BT.601 PAL
Transfer characteristics    : BT.709
Matrix coefficients         : BT.601

Audio
ID                          : 2
Format                      : AAC LC
Format/Info                 : Advanced Audio Codec Low Complexity
Codec ID                    : A_AAC-2
Duration                    : 1 h 29 min
Bit rate                    : 109 kb/s
Channel(s)                  : 2 channels
Channel layout              : L R
Sampling rate               : 48.0 kHz
Frame rate                  : 46.875 FPS (1024 SPF)
Compression mode            : Lossy
Stream size                 : 69.7 MiB (10%)
Language                    : Hungarian
Default                     : Yes
Forced                      : No

1. évad

Hidden Content

    Give reaction or reply to this topic to see the hidden content.

2. évad

 

Hidden Content

    Give reaction or reply to this topic to see the hidden content.

3. évad

 

Hidden Content

    Give reaction or reply to this topic to see the hidden content.

4. évad

Hidden Content

    Give reaction or reply to this topic to see the hidden content.

5. évad

Hidden Content

    Give reaction or reply to this topic to see the hidden content.

6. évad

Hidden Content

    Give reaction or reply to this topic to see the hidden content.

7. évad

Hidden Content

    Give reaction or reply to this topic to see the hidden content.

 

  • Like 2
  • Thanks 4

Share this post


Link to post
Share on other sites

George Gently. 2007-.576p.2ch.x264  7.T évad

  • Like 1
  • Thanks 4

Share this post


Link to post
Share on other sites
Sign in to follow this  

  • Recently Browsing   0 members

    No registered users viewing this page.

×