Jump to content
PirateClub.hu
Sign in to follow this  
ninoel

Godzilla Kong ellen (Godzilla.vs.Kong) 2021.1080p.3D.10bit.BrRip.H-SBS.6CH.x265.Hun

Recommended Posts

Godzilla Kong ellen (Godzilla.vs.Kong) 2021.1080p.3D.10bit.BrRip.H-SBS.6CH.x265
szinkronizált, merikai horror, sci-fi, akciófilm, 113 perc, 2.1 Gb

godzilla-vs.jpg

3d_fast.png

hevc_265_hu_2.jpg

Godzilla nemrég legyőzte a többi titánt, és aki életben maradt, az mind engedelmes szolgája lett. De a Koponya-szigeten élő magányos óriás, Kong nem tartozik a hordába. És a 70-es években lezajlott, szerencsétlen végű expedíció óta csak egyre nagyobb és erősebb lett.

RENDEZŐ: Adam Wingard
FORGATÓKÖNYVÍRÓ: Terry Rossio, Michael Dougherty, Zach Shields
ZENE: Junkie XL
SZEREPLŐK: Alexander Skarsgård, Millie Bobby Brown, Kyle Chandler, Rebecca Hall, Eiza González, Demián Bichir

Spoiler

 

Video
ID                          : 1
Format                      : HEVC
Format/Info                 : High Efficiency Video Coding
Format profile              : Main 10@L4@Main
Codec ID                    : V_MPEGH/ISO/HEVC
Duration                    : 1 h 53 min
Bit rate                    : 2 281 kb/s
Width                       : 1 920 pixels
Height                      : 1 080 pixels
Display aspect ratio        : 16:9
Frame rate mode             : Constant
Frame rate                  : 23.976 (24000/1001) FPS
Color space                 : YUV
Chroma subsampling          : 4:2:0
Bit depth                   : 10 bits
Bits/(Pixel*Frame)          : 0.046
Stream size                 : 1.80 GiB (92%)
Default                     : Yes
Forced                      : No
Color range                 : Limited
Color primaries             : BT.709
Transfer characteristics    : BT.709
Matrix coefficients         : BT.709

Audio
ID                          : 2
Format                      : AAC LC SBR
Format/Info                 : Advanced Audio Codec Low Complexity with Spectral Band Replication
Commercial name             : HE-AAC
Format settings             : Explicit
Codec ID                    : A_AAC-2
Duration                    : 1 h 53 min
Bit rate                    : 208 kb/s
Channel(s)                  : 6 channels
Channel layout              : C L R Ls Rs LFE
Sampling rate               : 48.0 kHz
Frame rate                  : 23.438 FPS (2048 SPF)
Compression mode            : Lossy
Stream size                 : 168 MiB (8%)
Language                    : Hungarian
Default                     : Yes
Forced                      : No

 

Hidden Content

    Give reaction or reply to this topic to see the hidden content.

 

  • Like 2
  • Thanks 6

Share this post


Link to post
Share on other sites
Sign in to follow this  

  • Recently Browsing   0 members

    No registered users viewing this page.

×