Jump to content
PirateClub.hu
ninoel

Sweet Tooth: Az agancsos fiú. 2021.1080p.10bit.WEB-DL.6CH.x265.Hun T. évad

Recommended Posts

Sweet Tooth: Az agancsos fiú. 2021.1080p.10bit.WEB-DL.6CH.x265 T. évad
szinkronizált, amerikai fantasy, kalandfilmsorozat, 55 prc, 490 Mb/rész

sweet.jpg

1080p-10bit-3v.png

hevc_265_hu_2.jpg

A közkedvelt DC Comic alapján, Susan Downey és Robert Downey Jr. vezető producerek gondozásában készült Sweet Tooth: Az agancsos fiú egy posztapokaliptikus tündérmese a különleges kalandokra induló, magányosan vándorló szarvastestű fiúról.

RENDEZŐ: Toa Fraser, Jim Mickle, Robyn Grace
FORGATÓKÖNYVÍRÓ: Jim Mickle, Beth Schwartz, Christina Ham, Jeff Lemire
ZENE: Jeff Grace, Russell Pollack
SZEREPLŐK: James Brolin, Dania Ramirez, Will Forte, Christian Convery, Stefania LaVie Owen, Neil Sandilands, Adeel Akhtar

Spoiler

 

Video
ID                          : 1
Format                      : HEVC
Format/Info                 : High Efficiency Video Coding
Format profile              : Main 10@L5.1@High
Codec ID                    : V_MPEGH/ISO/HEVC
Duration                    : 53 min 26 s
Bit rate                    : 1 038 kb/s
Width                       : 1 920 pixels
Height                      : 1 080 pixels
Display aspect ratio        : 16:9
Frame rate mode             : Constant
Frame rate                  : 23.976 (24000/1001) FPS
Color space                 : YUV
Chroma subsampling          : 4:2:0
Bit depth                   : 10 bits
Bits/(Pixel*Frame)          : 0.021
Stream size                 : 397 MiB (76%)
Default                     : Yes
Forced                      : No
Color range                 : Limited
Matrix coefficients         : BT.709

Audio
ID                          : 2
Format                      : AAC LC
Format/Info                 : Advanced Audio Codec Low Complexity
Codec ID                    : A_AAC-2
Duration                    : 54 min 40 s
Bit rate                    : 313 kb/s
Channel(s)                  : 6 channels
Channel layout              : C L R Ls Rs LFE
Sampling rate               : 48.0 kHz
Frame rate                  : 46.875 FPS (1024 SPF)
Compression mode            : Lossy
Delay relative to video     : 20 ms
Stream size                 : 122 MiB (24%)
Language                    : Hungarian
Default                     : No
Forced                      : No

Text
ID                          : 3
Format                      : UTF-8
Codec ID                    : S_TEXT/UTF8
Codec ID/Info               : UTF-8 Plain Text
Duration                    : 52 min 25 s
Bit rate                    : 1 b/s
Count of elements           : 15
Stream size                 : 460 Bytes (0%)
Language                    : Hungarian
Default                     : Yes
Forced                      : Yes

 

Hidden Content

    Give reaction or reply to this topic to see the hidden content.


 

  • Thanks 6
  • Upvote 1

Share this post


Link to post
Share on other sites

Sweet Tooth: Az agancsos fiú. 2021.1080p.10bit.WEB-DL.6CH.x265 T. évad 2. rész hang hiba miatt lecserélve.
 

  • Thanks 4
  • Upvote 1

Share this post


Link to post
Share on other sites

  • Recently Browsing   0 members

    No registered users viewing this page.

×