Jump to content
PirateClub.hu
ninoel

The Nevers.2021.1080p.10bit.WEBRip.6CH.x265.Hun T évad

Recommended Posts

The Nevers.2021.1080p.10bit.WEBRip.6CH.x265
szinkronizált, amerikai sci-fi sorozat, drámasorozat, 60 perc, 575 Mb/rész

the-nevers-2.jpg

1080p-10bit-3v.png

hevc_265_hu_2.jpg

Az HBO új drámasorozata, a The Nevers áprilisban debütál hat epizóddal. Viktória királynő uralkodásának utolsó éveiben Londonban egyre-másra bukkannak fel az "Érintettek": főleg nők, akik hirtelen addig nem látott furcsa képességekről számolnak be. Ezek között vannak bájosak, de nyugtalanítóak is. Egyikük Amalia True (Laura Donnelly), a titokzatos, gyors öklű özvegy, társnője pedig Penance Adair (Ann Skelly), a zseniális fiatal feltaláló. Ők ketten állnak a gyarapodó csoport élére és vágnak bele a nagy feladatba, hogy helyet teremtsenek maguknak a merev viktoriánus társadalomban, ám ehhez meg kell küzdeniük számos, ha nem az összes olyan erővel, amely nem nézi jó szemmel a különleges képességű emberek puszta létezését sem.

RENDEZŐ: Joss Whedon
FORGATÓKÖNYVÍRÓ: Jane Espenson, Laurie Penny, Douglas Petrie, Joss Whedon
SZEREPLŐK: Nick Frost, Eleanor Tomlinson, Olivia Williams, Laura Donnelly, James Norton, Ben Chaplin, Denis O'Hare, Tom Riley

Spoiler

 

Video
ID                          : 1
Format                      : HEVC
Format/Info                 : High Efficiency Video Coding
Format profile              : Main 10@L4@High
Codec ID                    : V_MPEGH/ISO/HEVC
Duration                    : 1 h 3 min
Bit rate                    : 1 043 kb/s
Width                       : 1 920 pixels
Height                      : 1 080 pixels
Display aspect ratio        : 16:9
Frame rate mode             : Constant
Frame rate                  : 23.976 (24000/1001) FPS
Color space                 : YUV
Chroma subsampling          : 4:2:0
Bit depth                   : 10 bits
Bits/(Pixel*Frame)          : 0.021
Stream size                 : 472 MiB (87%)
Default                     : Yes
Forced                      : No
Color range                 : Limited
Color primaries             : BT.709
Transfer characteristics    : BT.709
Matrix coefficients         : BT.709

Audio
ID                          : 2
Format                      : AAC LC SBR
Format/Info                 : Advanced Audio Codec Low Complexity with Spectral Band Replication
Commercial name             : HE-AAC
Format settings             : Explicit
Codec ID                    : A_AAC-2
Duration                    : 1 h 3 min
Bit rate                    : 159 kb/s
Channel(s)                  : 6 channels
Channel layout              : C L R Ls Rs LFE
Sampling rate               : 48.0 kHz
Frame rate                  : 23.438 FPS (2048 SPF)
Compression mode            : Lossy
Stream size                 : 71.8 MiB (13%)
Language                    : Hungarian
Default                     : Yes
Forced                      : No

Text
ID                          : 3
Format                      : UTF-8
Codec ID                    : S_TEXT/UTF8
Codec ID/Info               : UTF-8 Plain Text
Duration                    : 28 min 54 s
Bit rate                    : 1 b/s
Count of elements           : 11
Stream size                 : 332 Bytes (0%)
Language                    : Hungarian
Default                     : Yes
Forced                      : Yes

 

 

Hidden Content

    Give reaction or reply to this topic to see the hidden content.

 

  • Like 2
  • Thanks 12

Share this post


Link to post
Share on other sites

The Nevers.2021.1080p.10bit.WEBRip.6CH.x265  5. - 6. rész.

  • Thanks 4

Share this post


Link to post
Share on other sites

  • Recently Browsing   0 members

    No registered users viewing this page.

×