Jump to content
PirateClub.hu
ninoel

George Gently. 2007.720p.10bit.WEBRip.2ch.x265.Hun 1.T 2.T 3.T 4.T 5.T 6.T 7.T 8.T évad

Recommended Posts

George Gently. 2007.720p.10bit.WEBRip.2ch.x265 
szinkronizált, angol krimisorozat, 89 perc, 485 Mb/rész

g-gantly.jpg

720p.png

hevc_265_hu_2.jpg

Alan Hunter regénysorozatán alapuló filmdráma, mely az 1960-as években játszódik. George Gently felügyelő (Martin Shaw) feleségét egy gengszter megöli, mire a férfi arra kényszerül, hogy meggondolja nyugdíjba vonulását. Amikor ráébred, hogy a bűnözés még mindig burjánzik, és az ő segítségére is szükség van, Gently összeáll DS John Bacchusszal (Lee Ingleby), hogy felgöngyölítsék a Northumberland és Durham megyében zajló gyilkosságokat. Az igazság kiderítésével saját démonjait is temeti.

RENDEZŐ: Ciaran Donnelly, Daniel O\'Hara
FORGATÓKÖNYVÍRÓ: Peter Flannery, Alan Hunter, Mick Ford, Timothy Prager
ZENE: Ray Harman, Mark Russell, John E. Keane
SZEREPLŐK: Richard Armitage, Jodie Comer, Mark Gatiss, Shaun Evans, Christian Cooke, Andrew-Lee Potts, Mark Williams

Spoiler

 

Video
ID                          : 1
Format                      : HEVC
Format/Info                 : High Efficiency Video Coding
Format profile              : Main 10@L4.1@High
Codec ID                    : V_MPEGH/ISO/HEVC
Duration                    : 1 h 29 min
Bit rate                    : 613 kb/s
Width                       : 896 pixels
Height                      : 720 pixels
Display aspect ratio        : 16:9
Original display aspect rat : 16:9
Frame rate mode             : Constant
Frame rate                  : 25.000 FPS
Color space                 : YUV
Chroma subsampling          : 4:2:0
Bit depth                   : 10 bits
Bits/(Pixel*Frame)          : 0.038
Stream size                 : 391 MiB (85%)
Default                     : Yes
Forced                      : No
Color range                 : Limited
Matrix coefficients         : BT.709

Audio
ID                          : 2
Format                      : AAC LC
Format/Info                 : Advanced Audio Codec Low Complexity
Codec ID                    : A_AAC-2
Duration                    : 1 h 29 min
Bit rate                    : 105 kb/s
Channel(s)                  : 2 channels
Channel layout              : L R
Sampling rate               : 48.0 kHz
Frame rate                  : 46.875 FPS (1024 SPF)
Compression mode            : Lossy
Delay relative to video     : 20 ms
Stream size                 : 66.8 MiB (15%)
Language                    : Hungarian
Default                     : No
Forced                      : No

 

1. évad

Hidden Content

    Give reaction or reply to this topic to see the hidden content.

2. évad

Hidden Content

    Give reaction or reply to this topic to see the hidden content.

3. évad

Hidden Content

    Give reaction or reply to this topic to see the hidden content.

4. évad

Hidden Content

    Give reaction or reply to this topic to see the hidden content.

5. évad

Hidden Content

    Give reaction or reply to this topic to see the hidden content.

6. évad

Hidden Content

    Give reaction or reply to this topic to see the hidden content.

7. évad

Hidden Content

    Give reaction or reply to this topic to see the hidden content.

8. évad

Hidden Content

    Give reaction or reply to this topic to see the hidden content.

 

  • Like 7
  • Thanks 12

Share this post


Link to post
Share on other sites

George Gently. 2007.720p.10bit.WEBRip.2ch.x265  8.T évad.

  • Like 2
  • Thanks 4

Share this post


Link to post
Share on other sites

  • Recently Browsing   0 members

    No registered users viewing this page.

×