Jump to content
PirateClub.hu
Sign in to follow this  
ninoel

Easttowni rejtélyek (Mare of Easttown) 2021.720p.10bit.WEBRip.6CH.x265.Hun T évad

Recommended Posts

Easttowni rejtélyek (Mare of Easttown) 2021.720p.10bit.WEBRip.6CH.x265
magyar feliratos, amerikai krimisorozat, 65 perc, 350 Mb/rész

mare-east.jpg

720p.png

hevc_265_hu_2.jpg

Az Easttowni rejtélyek című sorozat Pennysylvania állam egyik kisvárosában játszódik, ahol egy helyi nyomozó, Mare Sheehan (Kate Winslet) próbál egy gyilkosság végére járni, miközben magánéleti konfliktusainak köszönhetően a saját élete is éppen darabokra hullik szét. Az Emmy-, Grammy- és Oscar-díjas Kate Winslet főszereplésével készült, egyedi atmoszférájú sorozat bepillantást enged egy kicsi és zárt közösség sötét oldalába, egyúttal arra a kérdésre keresi a választ, hogy a családi és a múltbeli tragédiáink mennyire befolyásolhatják a jelenünket.

RENDEZŐ: Craig Zobel
FORGATÓKÖNYVÍRÓ: Brad Ingelsby
Operatőr: Ben Richardson
SZEREPLŐK: Kate Winslet, Evan Peters, Jean Smart, Angourie Rice, David Denman, Julianne Nicholson, Sosie Bacon, Cailee Spaeny

Spoiler

 

Video
ID                          : 1
Format                      : HEVC
Format/Info                 : High Efficiency Video Coding
Format profile              : Main 10@L3.1@Main
Codec ID                    : V_MPEGH/ISO/HEVC
Duration                    : 1 h 2 min
Bit rate                    : 527 kb/s
Width                       : 1 280 pixels
Height                      : 640 pixels
Display aspect ratio        : 2.000
Frame rate mode             : Constant
Frame rate                  : 23.976 (24000/1001) FPS
Color space                 : YUV
Chroma subsampling          : 4:2:0
Bit depth                   : 10 bits
Bits/(Pixel*Frame)          : 0.027
Stream size                 : 237 MiB (73%)
Default                     : Yes
Forced                      : No
Color range                 : Limited
Color primaries             : BT.709
Transfer characteristics    : BT.709
Matrix coefficients         : BT.709

Audio
ID                          : 2
Format                      : AAC LC SBR
Format/Info                 : Advanced Audio Codec Low Complexity with Spectral Band Replication
Commercial name             : HE-AAC
Format settings             : Explicit
Codec ID                    : A_AAC-2
Duration                    : 1 h 2 min
Bit rate                    : 192 kb/s
Channel(s)                  : 6 channels
Channel layout              : C L R Ls Rs LFE
Sampling rate               : 48.0 kHz
Frame rate                  : 23.438 FPS (2048 SPF)
Compression mode            : Lossy
Stream size                 : 85.8 MiB (26%)
Language                    : Hungarian
Default                     : Yes
Forced                      : No

 

Hidden Content

    Give reaction or reply to this topic to see the hidden content.

 

  • Like 5
  • Thanks 13
  • Upvote 1

Share this post


Link to post
Share on other sites

Easttowni rejtélyek (Mare of Easttown) 2021.720p.10bit.WEBRip.6CH.x265   7. rész.

  • Like 1
  • Thanks 3
  • Upvote 1

Share this post


Link to post
Share on other sites
Sign in to follow this  

  • Recently Browsing   0 members

    No registered users viewing this page.

×