Jump to content
PirateClub.hu
Sign in to follow this  
ninoel

A szolgálólány meséje(The Handmaid's Tale)2017-.2160p.10bit.SDR.WEBRip.x265.HunSub 4. évad 1. - 4. rész

Recommended Posts

A szolgálólány meséje(The Handmaid's Tale)2017-.2160p.10bit.SDR.WEBRip.x265.HunSub 4. évad
magyar feliratos, amerikai drámasorozat, 60 perc, 1.3 Gb/rész

thmt.jpg

4K_SDR_v3.png

hevc_265_hu_2.jpg

A Margaret Atwood immár klasszikusnak számító regényén alapuló A szolgálólány meséje (The Handmaid's Tale) a disztópikus, Gileád Köztársaság nevű totalitárius társadalomban játszódik, amely az egykori Amerikai Egyesült Államok helyén jött létre. A környezeti katasztrófák által fenyegetett és zuhanó születési számokat mutató Gileádban torz fundamentalizmus uralkodik, amely militarizált formában tűzi zászlajára a "visszatérést a hagyományos értékekhez". Offred (Elisabeth Moss), aki a Vezér háztartásában Szolgálólányként dolgozik, az egyik utolsó termékeny nő, így a nőknek abba a kasztjába tartozik, akiket szexuális rabszolgaságra kényszerítenek a világ újbóli benépesítésére irányuló utolsó kétségbeesett erőfeszítés nevében. Offrednek ebben a rémisztő társadalomban kell életben maradnia a Vezérek, kegyetlen Feleségeik, a háztartásvezető Marthák és a többi Szolgálólány között - akik közül bárki Gileád kémje lehet -, és beteljesítenie célját: mindezt túlélni és megtalálni a lányát, akit elvettek tőle.

Szereplők:
Elisabeth Moss-Offred
Yvonne Strahovski-Serena Joy
Alexis Bledel-Ofglen
O.T. Fagbenle-Luke
képeMax Minghella-Nick

Rendező: Kari Skogland
Floria Sigismondi
Kate Dennis
Mike Barker
Reed Morano
Forgatókönyvíró: Margaret Atwood
Bruce Miller
Operatőr: Colin Watkinson

Spoiler

 

Video
ID                          : 1
Format                      : HEVC
Format/Info                 : High Efficiency Video Coding
Format profile              : Main 10@L5@Main
Codec ID                    : V_MPEGH/ISO/HEVC
Duration                    : 57 min 33 s
Bit rate                    : 3 349 kb/s
Width                       : 3 840 pixels
Height                      : 1 920 pixels
Display aspect ratio        : 2.000
Frame rate mode             : Constant
Frame rate                  : 23.976 (24000/1001) FPS
Color space                 : YUV
Chroma subsampling          : 4:2:0
Bit depth                   : 10 bits
Bits/(Pixel*Frame)          : 0.019
Stream size                 : 1.35 GiB (98%)
Default                     : Yes
Forced                      : No

Audio
ID                          : 2
Format                      : AAC LC SBR
Format/Info                 : Advanced Audio Codec Low Complexity with Spectral Band Replication
Commercial name             : HE-AAC
Format settings             : Explicit
Codec ID                    : A_AAC-2
Duration                    : 57 min 33 s
Bit rate                    : 64.0 kb/s
Channel(s)                  : 2 channels
Channel layout              : L R
Sampling rate               : 48.0 kHz
Frame rate                  : 23.438 FPS (2048 SPF)
Compression mode            : Lossy
Stream size                 : 26.3 MiB (2%)
Language                    : English
Default                     : Yes
Forced                      : No

Text
ID                          : 3
Format                      : UTF-8
Codec ID                    : S_TEXT/UTF8
Codec ID/Info               : UTF-8 Plain Text
Duration                    : 54 min 33 s
Bit rate                    : 35 b/s
Count of elements           : 466
Stream size                 : 14.3 KiB (0%)
Language                    : Hungarian
Default                     : Yes
Forced                      : No

 

Hidden Content

    Give reaction or reply to this topic to see the hidden content.

 

  • Thanks 1

Share this post


Link to post
Share on other sites
Sign in to follow this  

  • Recently Browsing   0 members

    No registered users viewing this page.

×