Jump to content
PirateClub.hu
Sign in to follow this  
ninoel

Sexify.2021.720p.10bit.WEB-DL.DDP.6CH.x265.hun T évad

Recommended Posts

Sexify.2021.720p.10bit.WEB-DL.DDP.6CH.x265 T évad
szinkronizált, lengyel vígjátéksorozat, 50 perc, 380 Mb/rész

sexify.jpg

720p.png

hevc_265_hu_2.jpg

Natalia nagyon jól tudja, mitől döglik a légy, ha szoftverfejlesztésről van szó. Azonban a szex egy olyan dolog, ami nem tartozik az
erősségei közé. Elhatározza hát, hogy kifürkészi a női orgazmus titkait. Segítségére vannak a barátnői és egy alkalmazás, amelyet
annak érdekében alkot meg, hogy megnyerjen egy versenyt, és útközben kielégítse cinkosai szükségleteit is.

RENDEZŐ: Kalina Alabrudzinska, Piotr Domalewski
SZEREPLŐK: Cezary Pazura, Sebastian Stankiewicz, Maria Sobocinska, Sandra Drzymalska, Małgorzata Foremniak, Zbigniew Zamachowski

Spoiler

 

Video
ID                          : 1
Format                      : HEVC
Format/Info                 : High Efficiency Video Coding
Format profile              : Main 10@L5.1@High
Codec ID                    : V_MPEGH/ISO/HEVC
Duration                    : 51 min 0 s
Bit rate                    : 708 kb/s
Width                       : 1 280 pixels
Height                      : 720 pixels
Display aspect ratio        : 16:9
Frame rate mode             : Constant
Frame rate                  : 24.000 FPS
Color space                 : YUV
Chroma subsampling          : 4:2:0
Bit depth                   : 10 bits
Bits/(Pixel*Frame)          : 0.032
Stream size                 : 258 MiB (69%)
Default                     : Yes
Forced                      : No
Color range                 : Limited
Color primaries             : BT.709
Transfer characteristics    : BT.709
Matrix coefficients         : BT.709

Audio
ID                          : 2
Format                      : E-AC-3
Format/Info                 : Enhanced AC-3
Commercial name             : Dolby Digital Plus
Codec ID                    : A_EAC3
Duration                    : 51 min 0 s
Bit rate mode               : Constant
Bit rate                    : 318 kb/s
Channel(s)                  : 6 channels
Channel layout              : L R C LFE Ls Rs
Sampling rate               : 48.0 kHz
Frame rate                  : 31.250 FPS (1536 SPF)
Compression mode            : Lossy
Stream size                 : 116 MiB (31%)
Language                    : Hungarian
Service kind                : Complete Main
Default                     : No
Forced                      : No

Text
ID                          : 3
Format                      : UTF-8
Codec ID                    : S_TEXT/UTF8
Codec ID/Info               : UTF-8 Plain Text
Duration                    : 49 min 35 s
Bit rate                    : 1 b/s
Count of elements           : 19
Stream size                 : 548 Bytes (0%)
Language                    : Hungarian
Default                     : Yes
Forced                      : Yes

 

Hidden Content

    Give reaction or reply to this topic to see the hidden content.

 

  • Thanks 2

Share this post


Link to post
Share on other sites
Sign in to follow this  

  • Recently Browsing   0 members

    No registered users viewing this page.

×