Jump to content
PirateClub.hu
Sign in to follow this  
ninoel

Az oltalmazó (The Marksman) 2021.1080p.10bit.BluRay.6CH.x265.HunSub

Recommended Posts

Az oltalmazó (The Marksman) 2021.1080p.10bit.BluRay.6CH.x265.HunSub
magyar feliratos, amerikai akcióthriller, 108 perc, 1.7 Gb

oltalmazo.jpg

1080p-10bit-3v.png

hevc_265_hu_2.jpg

A veterán Jim Hanson Arizonában, a mexikói határ mentén él. A férfi nehéz időszakot tudhat maga mögött, nemrég hunyt el ugyanis imádott felesége rákban. Jimet a gyászból két illegális bevándorló zökkenti ki: az anya-fiú párosra véletlenül bukkanó exkatona egy lövöldözésbe keveredik a mexikói kartell tagjaival, mely során egy eltévedt golyó végez az édesanyával. Jim így, ha vonakodva is, de szárnyai alá veszi a fiút, Miguelt, hogy elvigye őt Chicagóban élő rokonaihoz. Ám a kartell legelvetemültebb tagjai továbbra is ott vannak a nyomukban…

RENDEZŐ: Robert Lorenz
ÍRÓ: Chris Charles, Danny Kravitz
ZENE: Sean Callery
SZEREPLŐK: Liam Neeson, Katheryn Winnick, Juan Pablo Raba, Luce Rains, Amber Midthunder, Teresa Ruiz, Dylan Kenin

Spoiler

 

Video
ID                          : 1
Format                      : HEVC
Format/Info                 : High Efficiency Video Coding
Format profile              : Main 10@L4@Main
Codec ID                    : V_MPEGH/ISO/HEVC
Duration                    : 1 h 47 min
Bit rate                    : 1 865 kb/s
Width                       : 1 920 pixels
Height                      : 808 pixels
Display aspect ratio        : 2.40:1
Frame rate mode             : Constant
Frame rate                  : 23.976 (24000/1001) FPS
Color space                 : YUV
Chroma subsampling          : 4:2:0
Bit depth                   : 10 bits
Bits/(Pixel*Frame)          : 0.050
Stream size                 : 1.40 GiB (90%)
Default                     : Yes
Forced                      : No
Color range                 : Limited
Color primaries             : BT.709
Transfer characteristics    : BT.709
Matrix coefficients         : BT.709

Audio
ID                          : 2
Format                      : AAC LC SBR
Format/Info                 : Advanced Audio Codec Low Complexity with Spectral Band Replication
Commercial name             : HE-AAC
Format settings             : Explicit
Codec ID                    : A_AAC-2
Duration                    : 1 h 47 min
Bit rate                    : 206 kb/s
Channel(s)                  : 6 channels
Channel layout              : C L R Ls Rs LFE
Sampling rate               : 48.0 kHz
Frame rate                  : 23.438 FPS (2048 SPF)
Compression mode            : Lossy
Delay relative to video     : 23 ms
Stream size                 : 158 MiB (10%)
Language                    : English
Default                     : Yes
Forced                      : No

Text
ID                          : 3
Format                      : UTF-8
Codec ID                    : S_TEXT/UTF8
Codec ID/Info               : UTF-8 Plain Text
Duration                    : 1 h 39 min
Bit rate                    : 30 b/s
Count of elements           : 867
Stream size                 : 21.9 KiB (0%)
Language                    : Hungarian
Default                     : Yes
Forced                      : No

 

Hidden Content

    Give reaction or reply to this topic to see the hidden content.

 

  • Thanks 4

Share this post


Link to post
Share on other sites
Sign in to follow this  

  • Recently Browsing   0 members

    No registered users viewing this page.

×