Jump to content
PirateClub.hu
Sign in to follow this  
ninoel

A szolgálólány meséje(The Handmaid's Tale)2017.720p.10bit.WEBRip.x265/720p.x264.HunSub 4.T évad

Recommended Posts

A szolgálólány meséje(The Handmaid's Tale)2017.720p.10bit.WEBRip.x265/720p.x264.HunSub 4. évad
magyar feliratos, amerikai drámasorozat, 60 perc, 190/460 Mb/rész

thmt.jpg

720p_10bit.png

hevc_265_hu_2.jpg

A Margaret Atwood immár klasszikusnak számító regényén alapuló A szolgálólány meséje (The Handmaid's Tale) a disztópikus, Gileád Köztársaság nevű totalitárius társadalomban játszódik, amely az egykori Amerikai Egyesült Államok helyén jött létre. A környezeti katasztrófák által fenyegetett és zuhanó születési számokat mutató Gileádban torz fundamentalizmus uralkodik, amely militarizált formában tűzi zászlajára a "visszatérést a hagyományos értékekhez". Offred (Elisabeth Moss), aki a Vezér háztartásában Szolgálólányként dolgozik, az egyik utolsó termékeny nő, így a nőknek abba a kasztjába tartozik, akiket szexuális rabszolgaságra kényszerítenek a világ újbóli benépesítésére irányuló utolsó kétségbeesett erőfeszítés nevében. Offrednek ebben a rémisztő társadalomban kell életben maradnia a Vezérek, kegyetlen Feleségeik, a háztartásvezető Marthák és a többi Szolgálólány között - akik közül bárki Gileád kémje lehet -, és beteljesítenie célját: mindezt túlélni és megtalálni a lányát, akit elvettek tőle.

Szereplők
Elisabeth Moss-Offred
Yvonne Strahovski-Serena Joy
Alexis Bledel-Ofglen
O.T. Fagbenle-Luke
képeMax Minghella-Nick

Rendező: Kari Skogland
Floria Sigismondi
Kate Dennis
Mike Barker
Reed Morano
Forgatókönyvíró: Margaret Atwood
Bruce Miller
Operatőr: Colin Watkinson

Spoiler

 

Video
ID                          : 1
Format                      : HEVC
Format/Info                 : High Efficiency Video Coding
Format profile              : Main 10@L3.1@Main
Codec ID                    : V_MPEGH/ISO/HEVC
Duration                    : 57 min 33 s
Bit rate                    : 484 kb/s
Width                       : 1 280 pixels
Height                      : 640 pixels
Display aspect ratio        : 2.000
Frame rate mode             : Constant
Frame rate                  : 23.976 (24000/1001) FPS
Color space                 : YUV
Chroma subsampling          : 4:2:0
Bit depth                   : 10 bits
Bits/(Pixel*Frame)          : 0.025
Stream size                 : 199 MiB (87%)
Default                     : Yes
Forced                      : No

Audio
ID                          : 2
Format                      : AAC LC SBR
Format/Info                 : Advanced Audio Codec Low Complexity with Spectral Band Replication
Commercial name             : HE-AAC
Format settings             : Explicit
Codec ID                    : A_AAC-2
Duration                    : 57 min 33 s
Bit rate                    : 70.3 kb/s
Channel(s)                  : 2 channels
Channel layout              : L R
Sampling rate               : 48.0 kHz
Frame rate                  : 23.438 FPS (2048 SPF)
Compression mode            : Lossy
Delay relative to video     : 23 ms
Stream size                 : 29.0 MiB (13%)
Language                    : English
Default                     : Yes
Forced                      : No

Text
ID                          : 3
Format                      : UTF-8
Codec ID                    : S_TEXT/UTF8
Codec ID/Info               : UTF-8 Plain Text
Duration                    : 54 min 33 s
Bit rate                    : 35 b/s
Count of elements           : 466
Stream size                 : 14.3 KiB (0%)
Language                    : Hungarian
Default                     : Yes
Forced                      : No

 

 

Hidden Content

    Give reaction or reply to this topic to see the hidden content.

720p_Full_HD_v.2.png

x264_Logo.png

Spoiler

 

Video
ID                          : 1
Format                      : AVC
Format/Info                 : Advanced Video Codec
Format profile              : High@L4
Format settings             : CABAC / 4 Ref Frames
Format settings, CABAC      : Yes
Format settings, Reference  : 4 frames
Codec ID                    : V_MPEG4/ISO/AVC
Duration                    : 57 min 33 s
Bit rate                    : 1 024 kb/s
Width                       : 1 920 pixels
Height                      : 960 pixels
Display aspect ratio        : 2.000
Frame rate mode             : Constant
Frame rate                  : 23.976 (24000/1001) FPS
Color space                 : YUV
Chroma subsampling          : 4:2:0
Bit depth                   : 8 bits
Scan type                   : Progressive
Bits/(Pixel*Frame)          : 0.023
Stream size                 : 421 MiB (90%)
Default                     : Yes
Forced                      : No

Audio
ID                          : 2
Format                      : AAC LC
Format/Info                 : Advanced Audio Codec Low Complexity
Codec ID                    : A_AAC-2
Duration                    : 57 min 33 s
Bit rate                    : 110 kb/s
Channel(s)                  : 2 channels
Channel layout              : L R
Sampling rate               : 48.0 kHz
Frame rate                  : 46.875 FPS (1024 SPF)
Compression mode            : Lossy
Delay relative to video     : 20 ms
Stream size                 : 45.2 MiB (10%)
Language                    : English
Default                     : No
Forced                      : No

Text
ID                          : 3
Format                      : UTF-8
Codec ID                    : S_TEXT/UTF8
Codec ID/Info               : UTF-8 Plain Text
Duration                    : 54 min 33 s
Bit rate                    : 35 b/s
Count of elements           : 466
Stream size                 : 14.3 KiB (0%)
Language                    : Hungarian
Default                     : Yes
Forced                      : No

 

 

Hidden Content

    Give reaction or reply to this topic to see the hidden content.


 

  • Like 2
  • Thanks 3

Share this post


Link to post
Share on other sites

A szolgálólány meséje(The Handmaid's Tale)2017.720p.10bit.WEBRip.x265/720p.x264.HunSub 4. évad  10. rész.

  • Like 2
  • Thanks 2

Share this post


Link to post
Share on other sites
Sign in to follow this  

  • Recently Browsing   0 members

    No registered users viewing this page.

×