Jump to content
PirateClub.hu
ninoel

Easttowni rejtélyek (Mare of Easttown) 2021.720p.10bit.WEBRip.2CH.x265.HunSub

Recommended Posts

Easttowni rejtélyek (Mare of Easttown) 2021.720p.10bit.WEBRip.2CH.x265.HunSub
magyar feliratos, amerikai krimisorozat, 65 perc, 280 Mb/rész

mare-east.jpg

720p.png

hevc_265_hu_2.jpg

Az Easttowni rejtélyek című sorozat Pennysylvania állam egyik kisvárosában játszódik, ahol egy helyi nyomozó, Mare Sheehan (Kate Winslet) próbál egy gyilkosság végére járni, miközben magánéleti konfliktusainak köszönhetően a saját élete is éppen darabokra hullik szét. Az Emmy-, Grammy- és Oscar-díjas Kate Winslet főszereplésével készült, egyedi atmoszférájú sorozat bepillantást enged egy kicsi és zárt közösség sötét oldalába, egyúttal arra a kérdésre keresi a választ, hogy a családi és a múltbeli tragédiáink mennyire befolyásolhatják a jelenünket.

RENDEZŐ: Craig Zobel
FORGATÓKÖNYVÍRÓ: Brad Ingelsby
Operatőr: Ben Richardson
SZEREPLŐK: Kate Winslet, Evan Peters, Jean Smart, Angourie Rice, David Denman, Julianne Nicholson, Sosie Bacon, Cailee Spaeny

Spoiler

 

Video
ID                          : 1
Format                      : HEVC
Format/Info                 : High Efficiency Video Coding
Format profile              : Main 10@L3.1@Main
Codec ID                    : V_MPEGH/ISO/HEVC
Duration                    : 1 h 2 min
Bit rate                    : 527 kb/s
Width                       : 1 280 pixels
Height                      : 640 pixels
Display aspect ratio        : 2.000
Frame rate mode             : Constant
Frame rate                  : 23.976 (24000/1001) FPS
Color space                 : YUV
Chroma subsampling          : 4:2:0
Bit depth                   : 10 bits
Bits/(Pixel*Frame)          : 0.027
Stream size                 : 237 MiB (89%)
Default                     : Yes
Forced                      : No
Color range                 : Limited
Color primaries             : BT.709
Transfer characteristics    : BT.709
Matrix coefficients         : BT.709

Audio
ID                          : 2
Format                      : AAC LC SBR
Format/Info                 : Advanced Audio Codec Low Complexity with Spectral Band Replication
Commercial name             : HE-AAC
Format settings             : Explicit
Codec ID                    : A_AAC-2
Duration                    : 1 h 2 min
Bit rate                    : 66.2 kb/s
Channel(s)                  : 2 channels
Channel layout              : L R
Sampling rate               : 48.0 kHz
Frame rate                  : 23.438 FPS (2048 SPF)
Compression mode            : Lossy
Delay relative to video     : 23 ms
Stream size                 : 29.5 MiB (11%)
Language                    : English
Default                     : Yes
Forced                      : No

Text
ID                          : 3
Format                      : UTF-8
Codec ID                    : S_TEXT/UTF8
Codec ID/Info               : UTF-8 Plain Text
Duration                    : 55 min 23 s
Bit rate                    : 58 b/s
Count of elements           : 706
Stream size                 : 23.7 KiB (0%)
Language                    : Hungarian
Default                     : Yes
Forced                      : No

 

Hidden Content

    Give reaction or reply to this topic to see the hidden content.

 

  • Like 1
  • Thanks 6

Share this post


Link to post
Share on other sites

Easttowni rejtélyek (Mare of Easttown) 2021.720p.10bit.WEBRip.2CH.x265.HunSub 7. rész

  • Thanks 3

Share this post


Link to post
Share on other sites

  • Recently Browsing   0 members

    No registered users viewing this page.

×