Jump to content
PirateClub.hu
Sign in to follow this  
ninoel

Raya és az utolsó sárkány (Raya and the Last Dragon) 2021.2160p.10bit.HDR.WEBRip.6CH.x265.Hun

Recommended Posts

Raya és az utolsó sárkány (Raya and the Last Dragon) 2021.2160p.10bit.HDR.WEBRip.6CH.x265
szinkronizált, amerikai animációs kalandfilm, vígjáték, 114 perc, 2.1 Gb

raya.jpg

4k-ultra-hd_-_tv.png

hdr10x265.png

A Walt Disney Animation Studios új filmje, a RAYA ÉS AZ UTOLSÓ SÁRKÁNY Kumandra fantasztikus világába repít, ahol emberek és sárkányok egykor harmóniában éltek egymás mellett. Amikor azonban egy gonosz erő fenyegette a vidéket, a sárkányok feláldozták magukat az emberiség megmentése érdekében. Most, 500 évvel később ez a gonosz visszatért, s egy magányos harcosra, Rayára hárul a feladat, hogy felkutassa a legendás utolsó sárkányt, aki egyesítheti a széthullott földet és megosztott népeit. Útja során a lány megtanulja, hogy egy sárkánynál többre van szükség a világ megmentéséhez – bizalom és csapatmunka is kell hozzá.

RENDEZŐ: Don Hall, Carlos López Estrada
FORGATÓKÖNYVÍRÓ: Qui Nguyen, Adele Lim, Paul Briggs, Don Hall
ZENE: James Newton Howard
SZEREPLŐK: Sandra Oh, Awkwafina, Gemma Chan, Alan Tudyk, Daniel Dae Kim, Kelly Marie Tran, Dichen Lachman, Sung Kang

Spoiler

 

Video
ID                          : 1
Format                      : HEVC
Format/Info                 : High Efficiency Video Coding
Format profile              : Main 10@L5@Main
HDR format                  : SMPTE ST 2086, HDR10 compatible
Codec ID                    : V_MPEGH/ISO/HEVC
Duration                    : 1 h 47 min
Bit rate                    : 2 536 kb/s
Width                       : 3 840 pixels
Height                      : 1 600 pixels
Display aspect ratio        : 2.40:1
Frame rate mode             : Constant
Frame rate                  : 23.976 (24000/1001) FPS
Color space                 : YUV
Chroma subsampling          : 4:2:0
Bit depth                   : 10 bits
Bits/(Pixel*Frame)          : 0.017
Stream size                 : 1.90 GiB (93%)
Default                     : Yes
Forced                      : No
Color range                 : Limited
Color primaries             : BT.2020
Transfer characteristics    : PQ
Matrix coefficients         : BT.2020 non-constant
Mastering display color pri : Display P3
Mastering display luminance : min: 0.0000 cd/m2, max: 1000 cd/m2

Audio
ID                          : 2
Format                      : AAC LC SBR
Format/Info                 : Advanced Audio Codec Low Complexity with Spectral Band Replication
Commercial name             : HE-AAC
Format settings             : Explicit
Codec ID                    : A_AAC-2
Duration                    : 1 h 47 min
Bit rate                    : 192 kb/s
Channel(s)                  : 6 channels
Channel layout              : C L R Ls Rs LFE
Sampling rate               : 48.0 kHz
Frame rate                  : 23.438 FPS (2048 SPF)
Compression mode            : Lossy
Stream size                 : 147 MiB (7%)
Language                    : Hungarian
Default                     : Yes
Forced                      : No

Text
ID                          : 3
Format                      : UTF-8
Codec ID                    : S_TEXT/UTF8
Codec ID/Info               : UTF-8 Plain Text
Duration                    : 1 h 43 min
Bit rate                    : 0 b/s
Count of elements           : 7
Stream size                 : 111 Bytes (0%)
Title                       : Forced
Language                    : Hungarian
Default                     : Yes
Forced                      : Yes

 

Hidden Content

    Give reaction or reply to this topic to see the hidden content.

 

  • Thanks 10

Share this post


Link to post
Share on other sites
Sign in to follow this  

  • Recently Browsing   0 members

    No registered users viewing this page.

×