Jump to content
PirateClub.hu
ninoel

The Nevers.2021.720p.WEBRip.2CH.x264.HunSub

Recommended Posts

The Nevers.2021.720p.WEBRip.2CH.x264.HunSub 1 rész
magyar feliratos, amerikai sci-fi sorozat, drámasorozat, 60 perc, 600 Mb/rész

the-nevers-2.jpg

720p_Full_HD_v.2.png

x264_Logo.png

Az HBO új drámasorozata, a The Nevers áprilisban debütál hat epizóddal. Viktória királynő uralkodásának utolsó éveiben Londonban egyre-másra bukkannak fel az "Érintettek": főleg nők, akik hirtelen addig nem látott furcsa képességekről számolnak be. Ezek között vannak bájosak, de nyugtalanítóak is. Egyikük Amalia True (Laura Donnelly), a titokzatos, gyors öklű özvegy, társnője pedig Penance Adair (Ann Skelly), a zseniális fiatal feltaláló. Ők ketten állnak a gyarapodó csoport élére és vágnak bele a nagy feladatba, hogy helyet teremtsenek maguknak a merev viktoriánus társadalomban, ám ehhez meg kell küzdeniük számos, ha nem az összes olyan erővel, amely nem nézi jó szemmel a különleges képességű emberek puszta létezését sem.

RENDEZŐ: Joss Whedon
FORGATÓKÖNYVÍRÓ: Jane Espenson, Laurie Penny, Douglas Petrie, Joss Whedon
SZEREPLŐK: Nick Frost, Eleanor Tomlinson, Olivia Williams, Laura Donnelly, James Norton, Ben Chaplin, Denis O'Hare, Tom Riley

Spoiler

 

Video
ID                          : 1
Format                      : AVC
Format/Info                 : Advanced Video Codec
Format profile              : High@L3.1
Format settings             : CABAC / 4 Ref Frames
Format settings, CABAC      : Yes
Format settings, Reference  : 4 frames
Codec ID                    : V_MPEG4/ISO/AVC
Duration                    : 1 h 12 min
Bit rate                    : 1 024 kb/s
Width                       : 1 280 pixels
Height                      : 720 pixels
Display aspect ratio        : 16:9
Frame rate mode             : Constant
Frame rate                  : 23.976 (24000/1001) FPS
Color space                 : YUV
Chroma subsampling          : 4:2:0
Bit depth                   : 8 bits
Scan type                   : Progressive
Bits/(Pixel*Frame)          : 0.046
Stream size                 : 533 MiB (90%)
Color range                 : Limited
Color primaries             : BT.709
Transfer characteristics    : BT.709
Matrix coefficients         : BT.709

Audio
ID                          : 2
Format                      : AAC LC
Format/Info                 : Advanced Audio Codec Low Complexity
Codec ID                    : A_AAC-2
Duration                    : 1 h 12 min
Bit rate                    : 110 kb/s
Channel(s)                  : 2 channels
Channel layout              : L R
Sampling rate               : 48.0 kHz
Frame rate                  : 46.875 FPS (1024 SPF)
Compression mode            : Lossy
Delay relative to video     : 20 ms
Stream size                 : 57.0 MiB (10%)
Language                    : English
Default                     : No
Forced                      : No

Text
ID                          : 3
Format                      : UTF-8
Codec ID                    : S_TEXT/UTF8
Codec ID/Info               : UTF-8 Plain Text
Duration                    : 56 min 51 s
Bit rate                    : 58 b/s
Count of elements           : 616
Stream size                 : 24.4 KiB (0%)
Language                    : Hungarian
Default                     : Yes
Forced                      : No

 

 

Hidden Content

    Give reaction or reply to this topic to see the hidden content.

 

  • Like 1
  • Thanks 8

Share this post


Link to post
Share on other sites

The Nevers.2021.720p.WEBRip.2CH.x264.HunSub  6. rész.

  • Thanks 4

Share this post


Link to post
Share on other sites

  • Recently Browsing   0 members

    No registered users viewing this page.

×