Jump to content
PirateClub.hu
Sign in to follow this  
AlFipapa

data prémium Vizipók csodapók EXTRA DVDRIP.

Recommended Posts


Vizipók csodapók  EXTRA DVDRIP. ( 3 epizódba)
3bKgc.jpg


Szines magyar rajzfilm 1978 /  3.84 GB

Össz méret: 3.84 GB.

A Vízipók-csodapók magyar televíziós rajzfilmsorozat, amelynek főszereplői Vízipók és a Keresztespók. Vízipók otthona a vízalatti Kristálypalota. Legjobb barátaik az algaszedő vízicsigák, Katica, kis hangyák, méhecske, hátonúszó poloska, Nünüke és az ormányosbogár. Kalandjaik során még találkoznak Csíbor bácsival, Rák apóval, kecskebékával, hőscincérrel, tegzesekkel és egyéb lakóival a rovarvilágnak.

Műfaj    mese, ismeretterjesztő

Írók - Bálint Ágnes, Kertész György

Rendezők    
Szabó Szabolcs
 Haui József
Szombati Szabó Csaba

Hang     
 Pathó István
 Harkányi Endre

Főcím  Vizipók a csodapók

Zeneszerző Pethő Zsolt

3bKgG.jpg
3bKgF.jpg
3bKgH.jpg


3bKgE.jpg


itt.gif

jsz3.gif

 


MediaInfo

Complete name : Vizipók-csodapók_1-2-3.mp4
Format                                   : MPEG-4
Format profile                           : Base Media
Codec ID                                 : isom (isom/iso2/avc1/mp41)
File size                                : 1.16 GiB
Duration                                 : 57 min 15 s
Overall bit rate                         : 2 897 kb/s
Writing application                      : Lavf58.45.100

Video
ID                                       : 1
Format                                   : AVC
Format/Info                              : Advanced Video Codec
Format profile                           : High@L3
Format settings                          : CABAC / 4 Ref Frames
Format settings, CABAC                   : Yes
Format settings, Reference frames        : 4 frames
Codec ID                                 : avc1
Codec ID/Info                            : Advanced Video Coding
Duration                                 : 57 min 15 s
Bit rate                                 : 2 761 kb/s
Width                                    : 640 pixels
Height                                   : 490 pixels
Display aspect ratio                     : 4:3
Original display aspect ratio            : 4:3
Frame rate mode                          : Constant
Frame rate                               : 25.000 FPS
Color space                              : YUV
Chroma subsampling                       : 4:2:0
Bit depth                                : 8 bits
Scan type                                : Progressive
Bits/(Pixel*Frame)                       : 0.352
Stream size                              : 1.10 GiB (95%)
Writing library                          : x264 core 155 r2917 0a84d98
Encoding settings                        : cabac=1 /
Codec configuration box                  : avcC

Audio
ID                                       : 2
Format                                   : AAC LC
Format/Info                              : Advanced Audio Codec Low Complexity
Codec ID                                 : mp4a-40-2
Duration                                 : 57 min 15 s
Bit rate mode                            : Constant
Bit rate                                 : 128 kb/s
Channel(s)                               : 2 channels
Channel layout                           : L R
Sampling rate                            : 44.1 kHz
Frame rate                               : 43.066 FPS (1024 SPF)
Compression mode                         : Lossy
Stream size                              : 52.4 MiB (4%)
Default                                  : Yes
Alternate group                          : 1
Language : Hungary


jsz3.gif

1.Epizód

3bKg9.jpg

Hidden Content

    Give reaction or reply to this topic to see the hidden content.

2.Epizód

3bKga.jpg

Hidden Content

    Give reaction or reply to this topic to see the hidden content.

jsz3.gif

3.Epizód

3bKgb.jpg

Hidden Content

    Give reaction or reply to this topic to see the hidden content.

  • Thanks 3

Share this post


Link to post
Share on other sites
Sign in to follow this  

  • Recently Browsing   0 members

    No registered users viewing this page.

×