Jump to content
PirateClub.hu
Sign in to follow this  
BOKROSLALA

Gladiátor/Gladiator/2000/HDR4K-2160p Hundub Engdub Hunsub

Recommended Posts

Gladiátor/Gladiator/2000/HDR4K-2160p Hundub Engdub Hunsub
Amerikai-Angol szinkronizált történelmi dráma, 170 perc, 2000
f590fbc20a11a8b3e097fd85811ca1d3.jpg

Történet
Maximus, a hatalmas római generális (Russell Crowe) a nép kedvence, és az idős uralkodó, Marcus Aurelius (Richard Harris) bizalmát is élvezi. Az összeesküvés áldozataként haldokló Marcus Aurelius őt teszi meg örökösévé hataloméhes fia, Commodus (Joaquin Phoenix) ellenében. Commodus átveszi mégis a hatalmat, és halálra ítéli Maximust: ő megmenekül, a Hispániában élő családjára mért csapást azonban nem tudja megakadályozni. Összetörten a rabszolgakereskedők kezére jut, akik eladják gladiátornak. Az életéért küzdő Maximust Rómába viszik, ahol felhasználja régi hírnevét, hogy lázadást szítson az eltunyult rómaiak között az elnyomó hatalom megdöntésére.
 
Stáblista:
Szereplők
Russell Crowe 
Maximus
Joaquin Phoenix 
Commodus
Connie Nielsen 
Lucilla
Richard Harris
Marcus Aurelius
Djimon Hounsou 
Juba
Ralph Moeller 
Vibius
Tomas Arana
Quintus
Oliver Reed 
Proximo
Derek Jacobi 
Gracchus
Spencer Treat Clark
Lucius
Alkotók
Rendező:
Ridley Scott
 
Videoinformációk
 

Spoiler

General
Unique ID                   : Gladiator Extended 4K.mkv
File size                   : 23.2 GiB
Duration                    : 2 h 50 min
Overall bit rate            : 19.4 Mb/s
Movie name                  : Gladiator Extended 4K
Cover                       : Yes
Attachments                 : cover.jpg
Video
ID                          : 1
Format                      : HEVC
Format/Info                 : High Efficiency Video Coding
HDR format                  : SMPTE ST 2086, HDR10 compatible
Duration                    : 2 h 50 min
Bit rate                    : 17.1 Mb/s
Width                       : 3 840 pixels
Height                      : 2 160 pixels
Display aspect ratio        : 16:9
Frame rate mode             : Constant
Frame rate                  : 23.976 (24000/1001) FPS
Color space                 : YUV
Chroma subsampling          : 4:2:0 (Type 2)
Bit depth                   : 10 bits
Stream size                 : 20.5 GiB (88%)
Title                       : Gladiator Extended 4K
Language                    : English
Default                     : Yes
Audio #1
ID                          : 2
Format                      : DTS
Format/Info                 : Digital Theater Systems
Codec ID                    : A_DTS
Duration                    : 2 h 50 min
Bit rate mode               : Constant
Bit rate                    : 768 kb/s
Channel(s)                  : 6 channels
Channel layout              : C L R Ls Rs LFE
Sampling rate               : 48.0 kHz
Frame rate                  : 93.750 FPS (512 SPF)
Bit depth                   : 24 bits
Compression mode            : Lossy
Delay relative to video     : 3 ms
Stream size                 : 939 MiB (4%)
Language                    : Hungarian
Default                     : Yes
Forced                      : No
Audio #2
ID                          : 3
Format                      : DTS
Format/Info                 : Digital Theater Systems
Codec ID                    : A_DTS
Duration                    : 2 h 50 min
Bit rate mode               : Constant
Bit rate                    : 1 509 kb/s
Channel(s)                  : 6 channels
Channel layout              : C L R Ls Rs LFE
Sampling rate               : 48.0 kHz
Frame rate                  : 93.750 FPS (512 SPF)
Bit depth                   : 24 bits
Compression mode            : Lossy
Stream size                 : 1.80 GiB (8%)
Language                    : English
Default                     : No
Forced                      : No
Text #1
ID                          : 4
Format                      : UTF-8
Codec ID                    : S_TEXT/UTF8
Codec ID/Info               : UTF-8 Plain Text
Duration                    : 2 h 45 min
Bit rate                    : 0 b/s
Count of elements           : 12
Stream size                 : 496 Bytes (0%)
Language                    : Hungarian
Default                     : Yes
Forced                      : No
Text #2
ID                          : 5
Format                      : UTF-8
Codec ID                    : S_TEXT/UTF8
Codec ID/Info               : UTF-8 Plain Text
Duration                    : 2 h 45 min
Bit rate                    : 35 b/s
Count of elements           : 1334
Stream size                 : 43.4 KiB (0%)
Language                    : Hungarian
Default                     : No
Forced                      : No

Sample & letöltés
 

Spoiler

Hidden Content

    Give reaction or reply to this topic to see the hidden content.

Hidden Content

    Give reaction or reply to this topic to see the hidden content.

Hidden Content

    Give reaction or reply to this topic to see the hidden content.

Hidden Content

    Give reaction or reply to this topic to see the hidden content.

Hidden Content

    Give reaction or reply to this topic to see the hidden content.

Hidden Content

    Give reaction or reply to this topic to see the hidden content.

Hidden Content

    Give reaction or reply to this topic to see the hidden content.

Hidden Content

    Give reaction or reply to this topic to see the hidden content.

Hidden Content

    Give reaction or reply to this topic to see the hidden content.

Hidden Content

    Give reaction or reply to this topic to see the hidden content.

Hidden Content

    Give reaction or reply to this topic to see the hidden content.

Hidden Content

    Give reaction or reply to this topic to see the hidden content.

Hidden Content

    Give reaction or reply to this topic to see the hidden content.

 

  • Like 2
  • Thanks 12

Share this post


Link to post
Share on other sites
Sign in to follow this  

  • Recently Browsing   0 members

    No registered users viewing this page.

×