Jump to content
PirateClub.hu
Sign in to follow this  
BOKROSLALA

Ragadozó/Predator/1987-2018/HDR-2160p Hundub Engdub Hunsub

Recommended Posts

Ragadozó/Predator/1987-2018/HDR-2160p Hundub Engdub Hunsub
Amerikai szinkronizált akciófilm, 107 perc, 1987-2018
b3f99a559c0fa29f50e2a21eb3153586.jpg

Történet
A különlegesen képzett kommandót egy dél-amerikai dzsungelbe vezénylik, hogy felkutassák és kimentsék bajba jutott társaikat - akik a környéken tűntek el és akik egy ideje nem adnak életjelet magukról. A veszélyes terepen rutinosan mozognak a minden lehetséges veszélyre felkészült katonák, ám az igazi fenyegetést nem a vadállatok, nem az embertelen éghajlat és környezet, de még csak nem is a fegyveres terroristák jelentik, hanem egy titokzatos, arctalan lény, akiről csak akkor vesznek tudomást, amikor már majdnem késő. A láthatatlan teremtmény sorra végez áldozataival, de nem a bosszú hajtja, hanem a puszta vadászszenvedély: egy másik bolygó lakója, aki azért látogatott a földre, hogy minél több trófeát gyűjtsön. Az új akció célja becserkészni és elpusztítani a vérszomjas lényt.
 
Stáblista:
Szereplők
Arnold Schwarzenegger 
Dutch Schaefer őrnagy
Carl Weathers 
George Dillon
Elpidia Carrillo 
Anna
Bill Duke
Mac
Jesse Ventura
Blain
Kevin Peter Hall
Ragadozó/Pilóta
Richard Chaves
Poncho
Sonny Landham
Billy
R.G. Armstrong
Phillips
Shane Black 
Hawkins
Alkotók
Rendező:
John McTiernan
 
Port.hu linkek
 

Spoiler

Hidden Content

    Give reaction or reply to this topic to see the hidden content.

Hidden Content

    Give reaction or reply to this topic to see the hidden content.

Hidden Content

    Give reaction or reply to this topic to see the hidden content.

Videoinformációk
 

Spoiler

General
Unique ID                   : PREDATOR.1987.mkv
Format                      : Matroska
Format version              : Version 4
File size                   : 23.3 GiB
Duration                    : 1 h 46 min
Overall bit rate mode       : Variable
Overall bit rate            : 31.4 Mb/s
Movie name                  : PREDATOR.1987
Cover                       : Yes
Attachments                 : cover.jpg
Video
ID                          : 1
Format                      : HEVC
HDR format                  : SMPTE ST 2086, HDR10 compatible
Duration                    : 1 h 46 min
Bit rate                    : 25.3 Mb/s
Width                       : 3 840 pixels
Height                      : 2 160 pixels
Display aspect ratio        : 16:9
Frame rate mode             : Constant
Frame rate                  : 23.976 (24000/1001) FPS
Color space                 : YUV
Chroma subsampling          : 4:2:0 (Type 2)
Bit depth                   : 10 bits
Bits/(Pixel*Frame)          : 0.127
Stream size                 : 18.9 GiB (81%)
Language                    : English
Default                     : Yes
Audio #1
ID                          : 2
Format                      : DTS
Format/Info                 : Digital Theater Systems
Codec ID                    : A_DTS
Duration                    : 1 h 46 min
Bit rate mode               : Constant
Bit rate                    : 1 509 kb/s
Channel(s)                  : 6 channels
Channel layout              : C L R Ls Rs LFE
Sampling rate               : 48.0 kHz
Frame rate                  : 93.750 FPS (512 SPF)
Bit depth                   : 16 bits
Compression mode            : Lossy
Stream size                 : 1.12 GiB (5%)
Language                    : Hungarian
Default                     : No
Forced                      : No
Audio #2
ID                          : 3
Format                      : DTS XLL
Format/Info                 : Digital Theater Systems
Commercial name             : DTS-HD Master Audio
Codec ID                    : A_DTS
Duration                    : 1 h 46 min
Bit rate mode               : Variable
Bit rate                    : 4 500 kb/s
Channel(s)                  : 6 channels
Channel layout              : C L R Ls Rs LFE
Sampling rate               : 48.0 kHz
Frame rate                  : 93.750 FPS (512 SPF)
Bit depth                   : 24 bits
Compression mode            : Lossless
Stream size                 : 3.35 GiB (14%)
Title                       : DTS-HD Master Audio / 5.1 / 48 kHz / 4500 kbps / 24-bit
Language                    : English
Default                     : No
Forced                      : No
Text
ID                          : 4
Format                      : UTF-8
Codec ID                    : S_TEXT/UTF8
Codec ID/Info               : UTF-8 Plain Text
Duration                    : 1 h 42 min
Bit rate                    : 20 b/s
Count of elements           : 446
Stream size                 : 15.2 KiB (0%)
Title                       : Magyar Teljes
Language                    : Hungarian
Default                     : No
Forced                      : No

Sample & letöltés
 

Spoiler

Hidden Content

    Give reaction or reply to this topic to see the hidden content.

Hidden Content

    Give reaction or reply to this topic to see the hidden content.

Hidden Content

    Give reaction or reply to this topic to see the hidden content.

Hidden Content

    Give reaction or reply to this topic to see the hidden content.

Hidden Content

    Give reaction or reply to this topic to see the hidden content.

Hidden Content

    Give reaction or reply to this topic to see the hidden content.

Hidden Content

    Give reaction or reply to this topic to see the hidden content.

Hidden Content

    Give reaction or reply to this topic to see the hidden content.

Hidden Content

    Give reaction or reply to this topic to see the hidden content.

Hidden Content

    Give reaction or reply to this topic to see the hidden content.

Hidden Content

    Give reaction or reply to this topic to see the hidden content.

Hidden Content

    Give reaction or reply to this topic to see the hidden content.

Hidden Content

    Give reaction or reply to this topic to see the hidden content.

 
Predator 2

Hidden Content

    Give reaction or reply to this topic to see the hidden content.

Hidden Content

    Give reaction or reply to this topic to see the hidden content.

Hidden Content

    Give reaction or reply to this topic to see the hidden content.

Hidden Content

    Give reaction or reply to this topic to see the hidden content.

Hidden Content

    Give reaction or reply to this topic to see the hidden content.

Hidden Content

    Give reaction or reply to this topic to see the hidden content.

Hidden Content

    Give reaction or reply to this topic to see the hidden content.

Hidden Content

    Give reaction or reply to this topic to see the hidden content.

Hidden Content

    Give reaction or reply to this topic to see the hidden content.

Hidden Content

    Give reaction or reply to this topic to see the hidden content.

Hidden Content

    Give reaction or reply to this topic to see the hidden content.

Hidden Content

    Give reaction or reply to this topic to see the hidden content.

Hidden Content

    Give reaction or reply to this topic to see the hidden content.

 
Ragadozók

Hidden Content

    Give reaction or reply to this topic to see the hidden content.

Hidden Content

    Give reaction or reply to this topic to see the hidden content.

Hidden Content

    Give reaction or reply to this topic to see the hidden content.

Hidden Content

    Give reaction or reply to this topic to see the hidden content.

Hidden Content

    Give reaction or reply to this topic to see the hidden content.

Hidden Content

    Give reaction or reply to this topic to see the hidden content.

Hidden Content

    Give reaction or reply to this topic to see the hidden content.

Hidden Content

    Give reaction or reply to this topic to see the hidden content.

Hidden Content

    Give reaction or reply to this topic to see the hidden content.

Hidden Content

    Give reaction or reply to this topic to see the hidden content.

Hidden Content

    Give reaction or reply to this topic to see the hidden content.

Hidden Content

    Give reaction or reply to this topic to see the hidden content.

Hidden Content

    Give reaction or reply to this topic to see the hidden content.

 
THE PREDATOR 2018

Hidden Content

    Give reaction or reply to this topic to see the hidden content.

Hidden Content

    Give reaction or reply to this topic to see the hidden content.

Hidden Content

    Give reaction or reply to this topic to see the hidden content.

Hidden Content

    Give reaction or reply to this topic to see the hidden content.

Hidden Content

    Give reaction or reply to this topic to see the hidden content.

Hidden Content

    Give reaction or reply to this topic to see the hidden content.

Hidden Content

    Give reaction or reply to this topic to see the hidden content.

Hidden Content

    Give reaction or reply to this topic to see the hidden content.

Hidden Content

    Give reaction or reply to this topic to see the hidden content.

Hidden Content

    Give reaction or reply to this topic to see the hidden content.

Hidden Content

    Give reaction or reply to this topic to see the hidden content.

Hidden Content

    Give reaction or reply to this topic to see the hidden content.

Hidden Content

    Give reaction or reply to this topic to see the hidden content.

 

  • Thanks 11

Share this post


Link to post
Share on other sites
Sign in to follow this  

  • Recently Browsing   0 members

    No registered users viewing this page.

×