Jump to content
PirateClub.hu
Sign in to follow this  
ninoel

Az Oszmán Birodalom felemelkedése (Ottoman Rising) 2020.720p.10bit.WEBRip.x265.Hun T évad

Recommended Posts

Az Oszmán Birodalom felemelkedése (Ottoman Rising) 2020.720p.10bit.WEBRip.x265 
szinkronizált, török történelmi dokumentumfilm, 45 perc, 260 Mb/rész

ottaman.jpg

720p.png

hevc_265_hu_2.jpg

Ez II. Mehmed szultán eredettörténete, és a Török Birodalom felemelkedésének története Konstantinápoly legendás ostromán és rákövetkező, 1453 májusi bukásán keresztül elmesélve.

RENDEZŐ: Emre Sahin
FORGATÓKÖNYVÍRÓ: Liz Lake, Kelly McPherson, Emre Sahin
SZEREPLŐK: Charles Dance, Tuba Büyüküstün, Erdal Yildiz, Ilayda Akdogan, 
Cem Yigit Uzümoglu, Tommaso Basili, Selim Bayraktar

Spoiler

 

Video
ID                          : 1
Format                      : HEVC
Format/Info                 : High Efficiency Video Coding
Format profile              : Main 10@L4@High
Codec ID                    : V_MPEGH/ISO/HEVC
Duration                    : 44 min 57 s
Bit rate                    : 727 kb/s
Width                       : 1 280 pixels
Height                      : 720 pixels
Display aspect ratio        : 16:9
Frame rate mode             : Constant
Frame rate                  : 23.976 (24000/1001) FPS
Color space                 : YUV
Chroma subsampling          : 4:2:0
Bit depth                   : 10 bits
Bits/(Pixel*Frame)          : 0.033
Stream size                 : 234 MiB (92%)
Default                     : Yes
Forced                      : No

Audio
ID                          : 2
Format                      : AAC LC SBR
Format/Info                 : Advanced Audio Codec Low Complexity with Spectral Band Replication
Commercial name             : HE-AAC
Format settings             : Explicit
Codec ID                    : A_AAC-2
Duration                    : 44 min 59 s
Bit rate                    : 62.7 kb/s
Channel(s)                  : 2 channels
Channel layout              : L R
Sampling rate               : 48.0 kHz
Frame rate                  : 23.438 FPS (2048 SPF)
Compression mode            : Lossy
Stream size                 : 20.2 MiB (8%)
Language                    : Hungarian
Default                     : Yes
Forced                      : No

Text #1
ID                          : 3
Format                      : UTF-8
Codec ID                    : S_TEXT/UTF8
Codec ID/Info               : UTF-8 Plain Text
Duration                    : 2 min 47 s
Bit rate                    : 5 b/s
Count of elements           : 2
Stream size                 : 125 Bytes (0%)
Language                    : Hungarian
Default                     : Yes
Forced                      : Yes

 

Hidden Content

    Give reaction or reply to this topic to see the hidden content.

 

  • Like 1
  • Thanks 6

Share this post


Link to post
Share on other sites
Sign in to follow this  

  • Recently Browsing   0 members

    No registered users viewing this page.

×