Jump to content
PirateClub.hu
Sign in to follow this  
BOKROSLALA

A múmia/The Mummy/1-3/1999-2008/HDR10-2160p Hundub Engdub Hunsub

Recommended Posts

A múmia/The Mummy/1-3/1999-2008/HDR10-2160p Hundub Engdub Hunsub
Amerikai kalandfilm, 124 perc, 1999-2008
e83c8f5a169b81c5c4b1d409a9d2aa8e.jpg

Történet

Spoiler

Történet
Az ókori Théba falai között tiltott szerelemre lobbant Imhotep főpap és a fáraó szeretője. Bűnükért halálra ítélik Osiris főpapját és a lányt. Imhotep férgektől nyüzsgő teteme háromezer évig feküdt Hamunaptra elveszett városában. 1925 nyarán azonban néhány elszánt kincsvadász rábukkan az ősi sírra. Akaratukon kívül kiszabadítják Imhotep szellemét, amely egy elátkozott egyiptomi papban kel új életre. Rick O'Connell és a többi kalandor igyekeznek megszabadulni a szörnyű átoktól, amely a borzalmak 3000 éves szellemének feltámadásával fenyegeti őket és az emberiséget.
 
Stáblista:
Szereplők
Brendan Fraser
Rick O'Connell
Rachel Weisz 
Evelyn
John Hannah 
Jonathan
Arnold Vosloo
Imhotep
Kevin J. O'Connor 
Beni
Oded Fehr 
Alkotók
Rendező:
Stephen Sommers
 
A Múmia visszatér/The Mummy Returns
Amerikai kalandfilm, 130 perc, 2001
1933, London: tíz évvel az előző történet megrázó eseményei után. A régész Rick O'Connell (Brendan Fraser) boldog házasságban él Evelynnel (Rachel Weisz) és nyolcéves kisfiukkal, Alex-szel (Freddie Boath) Londonban. A British Museumban pihenő Imhotep fáraó (Arnold Vosloo) újra feléled, miután az átok véletlenül megtört. A bosszúszomjas fáraó múmiája az öröklétet akarja visszaszerezni. Azonban egy nálánál még nagyobb erő is feltámad ugyanakkor: a Skorpió király szelleme. A világ két kimondhatatlanul gonosz, ősi ereje ütközik meg Anglia fővárosában. Az O'Connell-család legfiatalabb tagja a világ sorsának záloga.
 
Stáblista:
Szereplők
Brendan Fraser 
Rick O'Connell
Rachel Weisz 
Evelyn Carnahan O'Connell/Nefertiri
Arnold Vosloo 
Imhotep
John Hannah 
Jonathan Carnahan
Oded Fehr
Ardeth Bay
Freddie Boath
Alex O'Connell
Patricia Velasquez 
Meela/Anck-Su-Namun
Dwayne Johnson 
Mathayus
 
A Múmia - A Sárkánycsászár sírja/The Mummy: Tomb Of The Dragon Emperor
Amerikai-Kínai-Német kalandfilm, 116 perc, 2008
A Sárkánycsászár egykor Kína rettegett uralkodója volt, mígnem egy varázslónő örök álomba küldte őt a tengernyi harcosával együtt. Így lett belőlük egy hatalmas, néma agyaghadsereg, amely csak arra vár, hogy valaki újra felélessze a katonáit. Ez a valaki pedig nem más, mint a felcseperedett Alex O'Connell, akinek a híres-hírhedt apjával, Rickkel és bájos anyjával, Evelynnel együtt szembe kell néznie az új életre kelt, elátkozott császárral, aki meg akarja szerezni a hatalmat a világ fölött. A szédítő kaland az ősi katakombákból a háború utáni Sanghaj utcáin át a Himalája jeges csúcsaira vezet.
 
Stáblista:
Szereplők
Brendan Fraser 
Rick O'Connell
Jet Li profilképeJet Li
Han császár
Maria Bello
Evelyn Carnahan O'Connell
Luke Ford
Alex O'Connell
John Hannah 
Jonathan Carnahan
Michelle Yeoh 
Zijuan

Videoinformációk

Spoiler

General
A Múmia.mkv
Format                      : Matroska
File size                   : 12.4 GiB
Duration                    : 2 h 4 min
Overall bit rate            : 14.2 Mb/s
Movie name                  : A Múmia: / The Mummy
Cover                       : Yes
Attachments                 : cover.jpg
Video
ID                          : 1
Format                      : HEVC
Format/Info                 : High Efficiency Video Coding
Format profile              : Main 10@L5.1@High
HDR format                  : SMPTE ST 2086, HDR10 compatible
Codec ID                    : V_MPEGH/ISO/HEVC
Duration                    : 2 h 4 min
Bit rate                    : 11.8 Mb/s
Width                       : 3 840 pixels
Height                      : 1 632 pixels
Display aspect ratio        : 2.35:1
Frame rate mode             : Constant
Frame rate                  : 23.976 (24000/1001) FPS
Color space                 : YUV
Chroma subsampling          : 4:2:0 (Type 2)
Bit depth                   : 10 bits
Bits/(Pixel*Frame)          : 0.078
Stream size                 : 10.3 GiB (83%)
Language                    : English
Default                     : Yes
Audio #1
ID                          : 2
Format                      : AC-3
Format/Info                 : Audio Coding 3
Commercial name             : Dolby Digital
Format settings             : Dolby Surround
Codec ID                    : A_AC3
Duration                    : 2 h 4 min
Bit rate mode               : Constant
Bit rate                    : 192 kb/s
Channel(s)                  : 2 channels
Channel layout              : L R
Sampling rate               : 48.0 kHz
Frame rate                  : 31.250 FPS (1536 SPF)
Compression mode            : Lossy
Stream size                 : 171 MiB (1%)
Language                    : Hungarian
Service kind                : Complete Main
Default                     : Yes
Forced                      : No
Audio #2
ID                          : 3
Format                      : DTS
Format/Info                 : Digital Theater Systems
Codec ID                    : A_DTS
Duration                    : 2 h 4 min
Bit rate mode               : Constant
Bit rate                    : 756 kb/s
Channel(s)                  : 6 channels
Channel layout              : C L R Ls Rs LFE
Sampling rate               : 48.0 kHz
Frame rate                  : 93.750 FPS (512 SPF)
Bit depth                   : 16 bits
Compression mode            : Lossy
Stream size                 : 675 MiB (5%)
Language                    : Hungarian
Default                     : No
Forced                      : No
Audio #3
ID                          : 4
Format                      : DTS
Format/Info                 : Digital Theater Systems
Codec ID                    : A_DTS
Duration                    : 2 h 4 min
Bit rate mode               : Constant
Bit rate                    : 1 509 kb/s
Channel(s)                  : 6 channels
Channel layout              : C L R Ls Rs LFE
Sampling rate               : 48.0 kHz
Frame rate                  : 93.750 FPS (512 SPF)
Bit depth                   : 24 bits
Compression mode            : Lossy
Stream size                 : 1.32 GiB (11%)
Language                    : English
Default                     : No
Forced                      : No
Text #1
ID                          : 5
Format                      : UTF-8
Codec ID                    : S_TEXT/UTF8
Codec ID/Info               : UTF-8 Plain Text
Duration                    : 1 h 48 min
Bit rate                    : 1 b/s
Count of elements           : 39
Stream size                 : 859 Bytes (0%)
Language                    : Hungarian
Default                     : Yes
Forced                      : No
Text #2
ID                          : 6
Format                      : UTF-8
Codec ID                    : S_TEXT/UTF8
Codec ID/Info               : UTF-8 Plain Text
Duration                    : 1 h 55 min
Bit rate                    : 39 b/s
Count of elements           : 1077
Stream size                 : 33.4 KiB (0%)
Language                    : Hungarian
Default                     : No
Forced                      : No

Sample & letöltés
 

Spoiler

Hidden Content

    Give reaction or reply to this topic to see the hidden content.

Hidden Content

    Give reaction or reply to this topic to see the hidden content.

Hidden Content

    Give reaction or reply to this topic to see the hidden content.

Hidden Content

    Give reaction or reply to this topic to see the hidden content.

Hidden Content

    Give reaction or reply to this topic to see the hidden content.

Hidden Content

    Give reaction or reply to this topic to see the hidden content.

Hidden Content

    Give reaction or reply to this topic to see the hidden content.

Hidden Content

    Give reaction or reply to this topic to see the hidden content.

Hidden Content

    Give reaction or reply to this topic to see the hidden content.

Hidden Content

    Give reaction or reply to this topic to see the hidden content.

Hidden Content

    Give reaction or reply to this topic to see the hidden content.

Hidden Content

    Give reaction or reply to this topic to see the hidden content.

Hidden Content

    Give reaction or reply to this topic to see the hidden content.

Hidden Content

    Give reaction or reply to this topic to see the hidden content.

2.

Hidden Content

    Give reaction or reply to this topic to see the hidden content.

Hidden Content

    Give reaction or reply to this topic to see the hidden content.

Hidden Content

    Give reaction or reply to this topic to see the hidden content.

Hidden Content

    Give reaction or reply to this topic to see the hidden content.

Hidden Content

    Give reaction or reply to this topic to see the hidden content.

Hidden Content

    Give reaction or reply to this topic to see the hidden content.

Hidden Content

    Give reaction or reply to this topic to see the hidden content.

Hidden Content

    Give reaction or reply to this topic to see the hidden content.

Hidden Content

    Give reaction or reply to this topic to see the hidden content.

Hidden Content

    Give reaction or reply to this topic to see the hidden content.

Hidden Content

    Give reaction or reply to this topic to see the hidden content.

Hidden Content

    Give reaction or reply to this topic to see the hidden content.

Hidden Content

    Give reaction or reply to this topic to see the hidden content.

Hidden Content

    Give reaction or reply to this topic to see the hidden content.

3.

Hidden Content

    Give reaction or reply to this topic to see the hidden content.

Hidden Content

    Give reaction or reply to this topic to see the hidden content.

Hidden Content

    Give reaction or reply to this topic to see the hidden content.

Hidden Content

    Give reaction or reply to this topic to see the hidden content.

Hidden Content

    Give reaction or reply to this topic to see the hidden content.

Hidden Content

    Give reaction or reply to this topic to see the hidden content.

Hidden Content

    Give reaction or reply to this topic to see the hidden content.

Hidden Content

    Give reaction or reply to this topic to see the hidden content.

Hidden Content

    Give reaction or reply to this topic to see the hidden content.

Hidden Content

    Give reaction or reply to this topic to see the hidden content.

Hidden Content

    Give reaction or reply to this topic to see the hidden content.

Hidden Content

    Give reaction or reply to this topic to see the hidden content.

Hidden Content

    Give reaction or reply to this topic to see the hidden content.

Hidden Content

    Give reaction or reply to this topic to see the hidden content.

 

 

  • Like 1
  • Thanks 13
  • Upvote 1

Share this post


Link to post
Share on other sites
Sign in to follow this  

  • Recently Browsing   0 members

    No registered users viewing this page.

×