Jump to content
PirateClub.hu
Sign in to follow this  
BOKROSLALA

Négy Gyerek És Az Izé/Four Kids And It/2020/H265-1080p Hundub Engdub Hunsub

Recommended Posts

Négy Gyerek És Az Izé/Four Kids And It/2020/H265-1080p Hundub Engdub Hunsub
Angol szinkronizált fantasy, családi film, 110 perc, 2020
0f9991b776b7b0b1ad52d2f452318d03.jpg

Történet
Alice (Paula Patton) és David (Matthew Goode), a friss szerelmespár első közös családi nyaralására készül egy cornwalli házikóban, kevésbé lelkes gyermekeikkel, akik most találkoznak először. A kiruccanás azonban váratlan fordulatot vesz, amikor a gyerekek a helyi strandon egy varázslatos (és nagyon morcos) lényt fedeznek fel, Psammeadot, aki képes teljesíteni a kívánságokat. Hőseink ezután találkoznak a kis település csodabogarával, Tristannal is (Russell Brand), aki el akarja fogni és a saját céljaira felhasználni a különleges lényt. Az így kibontakozó kaland összehozza az új testvéreket, és megtanítja őket arra, hogy elfogadják szüleik újonnan meglelt boldogságát.
 
Stáblista:
Szereplők
Pippa Haywood
a könyvesbolt tulajdonosa
Matthew Goode
David
Ashley Aufderheide
Smash
Paula Patton 
Alice
Russell Brand 
Tristan Trent
Michael Caine 
Psammead hangja
Alkotók
Rendező:
Andy De Emmony
 
Videoinformációk
 

Spoiler

General
Unique ID                   : Négy Gyerek És Az Izé.mkv
Format                      : Matroska
Format version              : Version 4
File size                   : 5.16 GiB
Duration                    : 1 h 50 min
Overall bit rate            : 6 713 kb/s
Movie name                  : Négy Gyerek És Az Izé
Cover                       : Yes
Attachments                 : cover.jpg
Video
ID                          : 1
Format                      : HEVC
Format/Info                 : High Efficiency Video Coding
Format profile              : Main@L4@Main
Codec ID                    : V_MPEGH/ISO/HEVC
Duration                    : 1 h 50 min
Bit rate                    : 5 303 kb/s
Width                       : 1 920 pixels
Height                      : 804 pixels
Display aspect ratio        : 2.40:1
Frame rate mode             : Constant
Frame rate                  : 23.976 (24000/1001) FPS
Color space                 : YUV
Chroma subsampling          : 4:2:0
Bit depth                   : 8 bits
Bits/(Pixel*Frame)          : 0.143
Stream size                 : 4.08 GiB (79%)
Default                     : Yes
Audio #1
ID                          : 2
Format                      : AC-3
Format/Info                 : Audio Coding 3
Commercial name             : Dolby Digital
Codec ID                    : A_AC3
Duration                    : 1 h 50 min
Bit rate mode               : Constant
Bit rate                    : 384 kb/s
Channel(s)                  : 2 channels
Channel layout              : L R
Sampling rate               : 48.0 kHz
Frame rate                  : 31.250 FPS (1536 SPF)
Compression mode            : Lossy
Stream size                 : 302 MiB (6%)
Language                    : Hungarian
Service kind                : Complete Main
Default                     : Yes
Forced                      : No
Audio #2
ID                          : 3
Format                      : E-AC-3
Format/Info                 : Enhanced AC-3
Commercial name             : Dolby Digital Plus
Codec ID                    : A_EAC3
Duration                    : 1 h 50 min
Bit rate mode               : Constant
Bit rate                    : 1 023 kb/s
Channel(s)                  : 6 channels
Channel layout              : L R C LFE Ls Rs
Sampling rate               : 48.0 kHz
Frame rate                  : 93.750 FPS (512 SPF)
Compression mode            : Lossy
Stream size                 : 806 MiB (15%)
Language                    : English
Service kind                : Complete Main
Default                     : No
Forced                      : No
Text #1
ID                          : 4
Format                      : UTF-8
Codec ID                    : S_TEXT/UTF8
Codec ID/Info               : UTF-8 Plain Text
Duration                    : 1 h 45 min
Bit rate                    : 0 b/s
Count of elements           : 22
Stream size                 : 696 Bytes (0%)
Language                    : Hungarian
Default                     : Yes
Forced                      : Yes
Text #2
ID                          : 5
Format                      : UTF-8
Codec ID                    : S_TEXT/UTF8
Codec ID/Info               : UTF-8 Plain Text
Duration                    : 1 h 46 min
Bit rate                    : 47 b/s
Count of elements           : 1255
Stream size                 : 36.9 KiB (0%)
Language                    : Hungarian
Default                     : No
Forced                      : No

Sample & letöltés
 

Spoiler

Hidden Content

    Give reaction or reply to this topic to see the hidden content.

Hidden Content

    Give reaction or reply to this topic to see the hidden content.

Hidden Content

    Give reaction or reply to this topic to see the hidden content.

Hidden Content

    Give reaction or reply to this topic to see the hidden content.

Hidden Content

    Give reaction or reply to this topic to see the hidden content.

Hidden Content

    Give reaction or reply to this topic to see the hidden content.

Hidden Content

    Give reaction or reply to this topic to see the hidden content.

 

  • Thanks 2

Share this post


Link to post
Share on other sites
Sign in to follow this  

  • Recently Browsing   0 members

    No registered users viewing this page.

×