Jump to content
PirateClub.hu
Sign in to follow this  
BOKROSLALA

Öld Meg Rómeót!/Romeo Must Die/2000/H265-1080p Hundub Engdub Hunsub

Recommended Posts

Öld Meg Rómeót!/Romeo Must Die/2000/H265-1080p Hundub Engdub Hunsub
Amerikai szinkronizált akciófilm, 115 perc, 2000
9d2afdc32586eda9f7c5531442e95dec.jpg

Történet
Két ellenséges oaklandi család között ádáz harc dúl. A tét: a város folyóparti kerületeinek ellenőrzése. A két család rivalizálása véres háborúba torkollik, amikor az egyik vezér fia, Po gyilkosság áldozatává válik. Po bátyja, Han (Jet Li), a legendás exzsaru megszökik a börtönből és Amerikába utazik, hogy kiderítse, mi történt a testvérével. Hamarosan azonban rá kell jönnie, hogy ő is célponttá vált, és az egyetlen ember, akire számíthat, Trish (Aaliyah), az ellenség vezérének szépséges lánya.
 
Stáblista:
Szereplők
Jet Li 
Han Sing
Aaliyah
Trish O'Day
DMX 
Silk
Isaiah Washington 
Mac
Russell Wong 
Kai
Grace Park 
Ázsiai táncos
Jonkit Lee
Po Sing
Edoardo Ballerini 
Vincent Roth
Chang Tseng
Victor Ho
Delroy Lindo 
Isaak
Antony Anderson
Maurice
Alkotók
Rendező:
Andrzej Bartkowiak
 
Videoinformációk
 

Spoiler

General
Unique ID                   : Romeo Must Die.mkv
Format                      : Matroska
Format version              : Version 4
File size                   : 5.04 GiB
Duration                    : 1 h 55 min
Overall bit rate            : 6 264 kb/s
Movie name                  : Romeo Must Die
Cover                       : Yes
Attachments                 : cover.jpg
Video
ID                          : 1
Format                      : HEVC
Format/Info                 : High Efficiency Video Coding
Duration                    : 1 h 55 min
Bit rate                    : 4 143 kb/s
Width                       : 1 920 pixels
Height                      : 1 080 pixels
Display aspect ratio        : 16:9
Frame rate mode             : Constant
Frame rate                  : 23.976 (24000/1001) FPS
Color space                 : YUV
Chroma subsampling          : 4:2:0
Bit depth                   : 8 bits
Bits/(Pixel*Frame)          : 0.083
Stream size                 : 3.33 GiB (66%)
Language                    : English
Default                     : Yes
Audio #1
ID                          : 2
Format                      : AC-3
Format/Info                 : Audio Coding 3
Commercial name             : Dolby Digital
Codec ID                    : A_AC3
Duration                    : 1 h 55 min
Bit rate mode               : Constant
Bit rate                    : 224 kb/s
Channel(s)                  : 2 channels
Channel layout              : L R
Sampling rate               : 48.0 kHz
Frame rate                  : 31.250 FPS (1536 SPF)
Compression mode            : Lossy
Stream size                 : 185 MiB (4%)
Language                    : Hungarian
Service kind                : Complete Main
Default                     : Yes
Forced                      : No
Audio #2
ID                          : 3
Format                      : AC-3
Format/Info                 : Audio Coding 3
Commercial name             : Dolby Digital
Codec ID                    : A_AC3
Duration                    : 1 h 55 min
Bit rate mode               : Constant
Bit rate                    : 384 kb/s
Channel(s)                  : 2 channels
Channel layout              : L R
Sampling rate               : 48.0 kHz
Frame rate                  : 31.250 FPS (1536 SPF)
Compression mode            : Lossy
Stream size                 : 316 MiB (6%)
Language                    : Hungarian
Service kind                : Complete Main
Default                     : No
Forced                      : No
Audio #3
ID                          : 4
Format                      : DTS
Format/Info                 : Digital Theater Systems
Codec ID                    : A_DTS
Duration                    : 1 h 55 min
Bit rate mode               : Constant
Bit rate                    : 1 509 kb/s
Channel(s)                  : 6 channels
Channel layout              : C L R Ls Rs LFE
Sampling rate               : 48.0 kHz
Frame rate                  : 93.750 FPS (512 SPF)
Bit depth                   : 24 bits
Compression mode            : Lossy
Stream size                 : 1.21 GiB (24%)
Language                    : English
Default                     : No
Forced                      : No
Text #1
ID                          : 5
Format                      : UTF-8
Codec ID                    : S_TEXT/UTF8
Codec ID/Info               : UTF-8 Plain Text
Duration                    : 1 h 54 min
Bit rate                    : 0 b/s
Count of elements           : 18
Stream size                 : 438 Bytes (0%)
Language                    : Hungarian
Default                     : Yes
Forced                      : Yes
Text #2
ID                          : 6
Format                      : UTF-8
Codec ID                    : S_TEXT/UTF8
Codec ID/Info               : UTF-8 Plain Text
Duration                    : 1 h 54 min
Bit rate                    : 30 b/s
Count of elements           : 1011
Stream size                 : 25.4 KiB (0%)
Language                    : Hungarian
Default                     : No
Forced                      : No

Sample & letöltés
 

Spoiler

Hidden Content

    Give reaction or reply to this topic to see the hidden content.

Hidden Content

    Give reaction or reply to this topic to see the hidden content.

Hidden Content

    Give reaction or reply to this topic to see the hidden content.

Hidden Content

    Give reaction or reply to this topic to see the hidden content.

Hidden Content

    Give reaction or reply to this topic to see the hidden content.

Hidden Content

    Give reaction or reply to this topic to see the hidden content.

Hidden Content

    Give reaction or reply to this topic to see the hidden content.

 

  • Like 1
  • Thanks 5

Share this post


Link to post
Share on other sites
Sign in to follow this  

  • Recently Browsing   0 members

    No registered users viewing this page.

×