Jump to content
PirateClub.hu
Sign in to follow this  
BOKROSLALA

Amerikába Jöttem/Coming To America/1984-HDR4K-2160p/Hundub Engdub Hunsub

Recommended Posts

Amerikába Jöttem/Coming To America/1984-HDR4K-2160p/Hundub Engdub Hunsub
Amerikai szinkronizált vígjáték, 112 perc, 1988
57d0303993d3f117ee23cd1bf4fc80ce.jpg

Történet
Akeem herceg (Eddie Murphy), a kis afrikai ország uralkodójelöltje dúsgazdag ember. Mindene megvan amit csak akarhat, ám úgy érzi üres az élete, mert nincs olyan nő, akibe bele tudna szeretni. A hercegnek pedig feleség kell, méghozzá olyan, aki sem nem a pénzéért, sem nem a hatalmáért megy hozzá. Ezért utazik hűséges barátjával, Semmivel Amerikába, ahol egy gyorsbüfében helyezkednek el takarítónak. A bajok akkor kezdődnek amikor kiderül, hogy a két férfi még soha életében nem látott felmosóvödröt és rongyot.
 
Stáblista:
Szereplők
Eddie Murphy 
Clarence/Akeem herceg/Randy Watson/Saul
Shari Headley
Lisa McDowell
Arsenio Hall
Semmi//Morris/Brown atya
James Earl Jones 
Jaffe Joffer király
John Amos 
Cleo McDowell
Madge Sinclair
Aoleon királynő
Paul Bates
Oha
Eriq La Salle 
Darryl Jenks
Garcelle Beauvais 
Rose Bearer
Alkotók
Rendező:
John Landis
 
Videoinformációk
 

Spoiler

General
Amerikába Jöttem.mkv
Format                      : Matroska
Format version              : Version 4
File size                   : 12.4 GiB
Duration                    : 1 h 56 min
Overall bit rate            : 15.2 Mb/s
Movie name                  : Coming to America
Cover                       : Yes
Attachments                 : cover.jpg
Video
ID                          : 1
Format                      : HEVC
Format/Info                 : High Efficiency Video Coding
Format profile              : Main 10@L5.1@High
HDR format                  : SMPTE ST 2086, HDR10 compatible
Codec ID                    : V_MPEGH/ISO/HEVC
Duration                    : 1 h 56 min
Bit rate                    : 12.8 Mb/s
Width                       : 3 840 pixels
Height                      : 2 160 pixels
Display aspect ratio        : 16:9
Frame rate mode             : Constant
Frame rate                  : 23.976 (24000/1001) FPS
Color space                 : YUV
Chroma subsampling          : 4:2:0 (Type 2)
Bit depth                   : 10 bits
Bits/(Pixel*Frame)          : 0.065
Stream size                 : 10.5 GiB (84%)
Title                       : Coming to America
Language                    : English
Default                     : Yes
Forced                      : No
Color range                 : Limited
Color primaries             : BT.2020
Transfer characteristics    : PQ
Matrix coefficients         : BT.2020 non-constant
Mastering display color pri : Display P3
Mastering display luminance : min: 0.0050 cd/m2, max: 4000 cd/m2
Maximum Content Light Level : 1000 cd/m2
Maximum Frame-Average Light : 228 cd/m2
Audio #1
ID                          : 2
Format                      : DTS
Format/Info                 : Digital Theater Systems
Codec ID                    : A_DTS
Duration                    : 1 h 56 min
Bit rate mode               : Constant
Bit rate                    : 1 509 kb/s
Channel(s)                  : 6 channels
Channel layout              : C L R Ls Rs LFE
Sampling rate               : 48.0 kHz
Frame rate                  : 93.750 FPS (512 SPF)
Bit depth                   : 24 bits
Compression mode            : Lossy
Stream size                 : 1.23 GiB (10%)
Default                     : No
Forced                      : No
Audio #2
ID                          : 3
Format                      : AC-3
Format/Info                 : Audio Coding 3
Commercial name             : Dolby Digital
Codec ID                    : A_AC3
Duration                    : 1 h 56 min
Bit rate mode               : Constant
Bit rate                    : 448 kb/s
Channel(s)                  : 2 channels
Channel layout              : L R
Sampling rate               : 48.0 kHz
Frame rate                  : 31.250 FPS (1536 SPF)
Compression mode            : Lossy
Delay relative to video     : 24 ms
Stream size                 : 374 MiB (3%)
Title                       : Eredeti - Magyar Szinkron
Language                    : Hungarian
Service kind                : Complete Main
Default                     : Yes
Forced                      : No
Audio #3
ID                          : 4
Format                      : AC-3
Format/Info                 : Audio Coding 3
Commercial name             : Dolby Digital
Codec ID                    : A_AC3
Duration                    : 1 h 56 min
Bit rate mode               : Constant
Bit rate                    : 448 kb/s
Channel(s)                  : 2 channels
Channel layout              : L R
Sampling rate               : 48.0 kHz
Frame rate                  : 31.250 FPS (1536 SPF)
Compression mode            : Lossy
Delay relative to video     : 16 ms
Stream size                 : 374 MiB (3%)
Title                       : Új - Szinkron
Language                    : Hungarian
Service kind                : Complete Main
Default                     : No
Forced                      : No
Text #1
ID                          : 5
Format                      : UTF-8
Codec ID                    : S_TEXT/UTF8
Codec ID/Info               : UTF-8 Plain Text
Duration                    : 1 h 48 min
Bit rate                    : 55 b/s
Count of elements           : 1191
Stream size                 : 44.3 KiB (0%)
Language                    : Hungarian
Default                     : No
Forced                      : No
Text #2
ID                          : 6
Format                      : UTF-8
Codec ID                    : S_TEXT/UTF8
Codec ID/Info               : UTF-8 Plain Text
Duration                    : 1 h 10 min
Bit rate                    : 0 b/s
Count of elements           : 18
Stream size                 : 524 Bytes (0%)
Title                       : Kiegészítő - Eredeti szinkron
Language                    : Hungarian
Default                     : Yes
Forced                      : No
Text #3
ID                          : 7
Format                      : UTF-8
Codec ID                    : S_TEXT/UTF8
Codec ID/Info               : UTF-8 Plain Text
Duration                    : 1 h 26 min
Bit rate                    : 0 b/s
Count of elements           : 19
Stream size                 : 553 Bytes (0%)
Title                       : Kiegészítő - Új szinkron
Language                    : Hungarian
Default                     : No
Forced                      : No

Sampke & ketöltés
 

Spoiler

Hidden Content

    Give reaction or reply to this topic to see the hidden content.

Hidden Content

    Give reaction or reply to this topic to see the hidden content.

Hidden Content

    Give reaction or reply to this topic to see the hidden content.

Hidden Content

    Give reaction or reply to this topic to see the hidden content.

Hidden Content

    Give reaction or reply to this topic to see the hidden content.

Hidden Content

    Give reaction or reply to this topic to see the hidden content.

Hidden Content

    Give reaction or reply to this topic to see the hidden content.

Hidden Content

    Give reaction or reply to this topic to see the hidden content.

 

  • Thanks 6

Share this post


Link to post
Share on other sites
Sign in to follow this  

  • Recently Browsing   0 members

    No registered users viewing this page.

×