Jump to content
PirateClub.hu
Sign in to follow this  
BOKROSLALA

Szerepcsere/Trading Places/1983/HDR-2160p Hundub Engdub Hunsub

Recommended Posts

Szerepcsere/Trading Places/1983/HDR-2160p Hundub Engdub Hunsub
Amerikai szinkronizált vígjáték, 112 perc, 1983
9b8f54d462226bb15a4bb28e62194aed.jpg

Történet
Billy Ray Valentine kisstílű szélhámos a gettóból, Lewis Winthorpe III pedig a Wall Street-i Duke Testvérek cég tehetős befektetési tanácsadója. A Duke testvérek fogadást kötnek, hogy a született vesztes Valentine lehet-e olyan sikeres üzletember, mint Winthorpe, ha megfelelő környezetbe kerül, illetve az öntelt Winthorpe elveszítheti-e mindenét és bűnözővé válhat-e, ha fordul a kocka. A két Duke intézkedik, hogy ez megtörténjék. Ily módon Valentine lesz a cégnél az aranyifjú, Whinthorpe pedig pillanatok alatt az utcán találja magát. A két fickó aztán egyszer összetalálkozik, és megpróbálnak rájönni, ki teszi ezt velük, és végül akcióba kezdenek, hogy kidolgozzák saját tervüket a visszavágásra.
 
Stáblista:
Szereplők
Dan Aykroyd
Louis Winthorpe III
Eddie Murphy 
Billy Ray Valentine
Jamie Lee Curtis 
Ophelia
Ralph Bellamy
Randolph Duke
Denholm Elliott
Coleman
Don Ameche 
Mortimer Duke
James Belushi 
Harvey
Alkotók
Rendező:
John Landis
 
Videoinformációk
 

Spoiler

General
Unique ID                   : Trading Places.mkv
Format                      : Matroska
Format version              : Version 4
File size                   : 12.7 GiB
Duration                    : 1 h 56 min
Overall bit rate            : 15.6 Mb/s
Movie name                  : Trading Places
Cover                       : Yes
Attachments                 : cover.jpg
Video
ID                          : 1
Format                      : HEVC
Format/Info                 : High Efficiency Video Coding
HDR format                  : SMPTE ST 2086, HDR10 compatible
Duration                    : 1 h 56 min
Bit rate                    : 14.4 Mb/s
Width                       : 3 840 pixels
Height                      : 2 160 pixels
Display aspect ratio        : 16:9
Frame rate mode             : Constant
Frame rate                  : 23.976 (24000/1001) FPS
Color space                 : YUV
Chroma subsampling          : 4:2:0 (Type 2)
Bit depth                   : 10 bits
Bits/(Pixel*Frame)          : 0.072
Stream size                 : 11.7 GiB (92%)
Language                    : English
Default                     : Yes
Audio #1
ID                          : 2
Format                      : AC-3
Format/Info                 : Audio Coding 3
Commercial name             : Dolby Digital
Codec ID                    : A_AC3
Duration                    : 1 h 56 min
Bit rate mode               : Constant
Bit rate                    : 384 kb/s
Channel(s)                  : 2 channels
Channel layout              : L R
Sampling rate               : 48.0 kHz
Frame rate                  : 31.250 FPS (1536 SPF)
Compression mode            : Lossy
Stream size                 : 320 MiB (2%)
Language                    : Hungarian
Service kind                : Complete Main
Default                     : Yes
Forced                      : No
Audio #2
ID                          : 3
Format                      : AC-3
Format/Info                 : Audio Coding 3
Commercial name             : Dolby Digital
Codec ID                    : A_AC3
Duration                    : 1 h 56 min
Bit rate mode               : Constant
Bit rate                    : 192 kb/s
Channel(s)                  : 2 channels
Channel layout              : L R
Sampling rate               : 48.0 kHz
Frame rate                  : 31.250 FPS (1536 SPF)
Compression mode            : Lossy
Stream size                 : 160 MiB (1%)
Language                    : Hungarian
Service kind                : Complete Main
Default                     : No
Forced                      : No
Audio #3
ID                          : 4
Format                      : AC-3
Format/Info                 : Audio Coding 3
Commercial name             : Dolby Digital
Codec ID                    : A_AC3
Duration                    : 1 h 56 min
Bit rate mode               : Constant
Bit rate                    : 640 kb/s
Channel(s)                  : 6 channels
Channel layout              : L R C LFE Ls Rs
Sampling rate               : 48.0 kHz
Frame rate                  : 31.250 FPS (1536 SPF)
Compression mode            : Lossy
Stream size                 : 533 MiB (4%)
Language                    : English
Service kind                : Complete Main
Default                     : No
Forced                      : No
Text
ID                          : 5
Format                      : UTF-8
Codec ID                    : S_TEXT/UTF8
Codec ID/Info               : UTF-8 Plain Text
Duration                    : 1 h 51 min
Bit rate                    : 51 b/s
Count of elements           : 1092
Stream size                 : 42.6 KiB (0%)
Language                    : Hungarian
Default                     : No
Forced                      : No

Sample & letöltés
 

Spoiler

Hidden Content

    Give reaction or reply to this topic to see the hidden content.

Hidden Content

    Give reaction or reply to this topic to see the hidden content.

Hidden Content

    Give reaction or reply to this topic to see the hidden content.

Hidden Content

    Give reaction or reply to this topic to see the hidden content.

Hidden Content

    Give reaction or reply to this topic to see the hidden content.

Hidden Content

    Give reaction or reply to this topic to see the hidden content.

Hidden Content

    Give reaction or reply to this topic to see the hidden content.

Hidden Content

    Give reaction or reply to this topic to see the hidden content.

 

  • Thanks 7
  • Upvote 1

Share this post


Link to post
Share on other sites
Sign in to follow this  

  • Recently Browsing   0 members

    No registered users viewing this page.

×