Jump to content
PirateClub.hu
Sign in to follow this  
BOKROSLALA

Tini Nindzsa Teknőcök/Teenage Mutant Ninja Turtles 1-2/HDR10-2160p/2014-2016/Hundub Engdub Hunsub

Recommended Posts

Tini Nindzsa Teknőcök/Teenage Mutant Ninja Turtles 1-2/HDR10-2160p/2014-2016/Hundub Engdub Hunsub
Amerikai szinkronizált akció-vígjáték, 97 perc, 2014
34dec430faa2de67e46cc37dbcf64c86.jpg

Történet
New Yorknak segítségre van szüksége. A bűn a Fürge Láb klán képében rátelepedett a metropoliszra, és vezetőjük, a titokzatos Zúzó mindenkit a kezében tart, legyen az tisztviselő, rendőr vagy politikus. A jövő kilátástalannak látszik, mígnem váratlanul felbukkan a csatornából a Tini nindzsa teknőcök csapata. A négy számkivetett, pizzazabáló és a távol-keleti harcművészetekben jártas mutáns teknős a bátor riporternővel, Aprillel összefogva megpróbálja megmenteni a várost az ördögi Zúzótól.
2.Rész
Tini Nindzsa Teknőcök: Elő az árnyékból
Teenage Mutant Ninja Turtles: Out of the Shadows
12 éven aluliak számára a megtekintése nagykorú felügyelete mellett ajánlott amerikai akció-vígjáték, 112 perc, 2016
Michelangelo, Donatello, Leonardo és Raphael nyáron visszatérnek a mozikba, hogy még nagyobb és még ádázabb gonosztevőkkel vegyék fel a harcot April O'Neil (Megan Fox), Vern Fenwick (Will Arnett) és egy újonc, a hokimaszkos igazságosztó, Casey Jones (Stephen Amell) oldalán. Miután Zúzó, a szupergonosz megszökik az őrizetből, összeáll Baxter Stockmannel, az őrült tudóssal, és két tökkelütött segéddel, Beboppal és Rocksteadyvel, hogy megvalósítsák a világuralomra törő ördögi tervet. Miközben a teknőcök Zúzóval és új csapatával küzdenek, egyszer csak szembe találják magukat egy még nagyobb gonosszal, akinek hasonlók a szándékai: a hírhedt Kranggal.
 
Stáblista:
Szereplők
Tony Shalhoub 
Szecska mester hangja
Noel Fisher
Michelangelo
Alan Ritchson
Raffaello
Jeremy Howard
Donatello
Johnny Knoxville 
Leonardo hangja
Megan Fox 
April O'Neil
William Fichtner 
Eric Sachs
Will Arnett 
Vernon Fenwick
Whoopi Goldberg 
Bernadette Thompson
Alkotók
Szinkronhang:
Háda János
Rajkai Zoltán
Szatory Dávid
Stohl András
Szabó Máté
Zsigmond Tamara
Csernák János
Zámbori Soma
Martin Márta
Csankó Zoltán
Rendező:
Jonathan Liebesman
 
Videoinformációk
 

Spoiler

General
Unique ID                   : Tini Nindzsa Teknőcök 1.mkv
Format                      : Matroska
Format version              : Version 4
File size                   : 11.7 GiB
Duration                    : 1 h 41 min
Overall bit rate            : 16.6 Mb/s
Movie name                  : Tini Nindzsa Teknőcök 1
Cover                       : Yes
Attachments                 : cover.jpg
Video
ID                          : 1
Format                      : HEVC
Format/Info                 : High Efficiency Video Coding
Format profile              : Main 10@L5.1@High
HDR format                  : SMPTE ST 2086, HDR10 compatible
Duration                    : 1 h 41 min
Bit rate                    : 15.3 Mb/s
Width                       : 3 840 pixels
Height                      : 2 160 pixels
Display aspect ratio        : 16:9
Frame rate mode             : Constant
Frame rate                  : 23.976 (24000/1001) FPS
Color space                 : YUV
Chroma subsampling          : 4:2:0 (Type 2)
Bit depth                   : 10 bits
Bits/(Pixel*Frame)          : 0.077
Stream size                 : 10.8 GiB (92%)
Language                    : English
Default                     : Yes
Audio #1
ID                          : 2
Format                      : AC-3
Format/Info                 : Audio Coding 3
Commercial name             : Dolby Digital
Codec ID                    : A_AC3
Duration                    : 1 h 41 min
Bit rate mode               : Constant
Bit rate                    : 640 kb/s
Channel(s)                  : 6 channels
Channel layout              : L R C LFE Ls Rs
Sampling rate               : 48.0 kHz
Frame rate                  : 31.250 FPS (1536 SPF)
Compression mode            : Lossy
Stream size                 : 464 MiB (4%)
Language                    : Hungarian
Service kind                : Complete Main
Default                     : Yes
Forced                      : No
Audio #2
ID                          : 3
Format                      : E-AC-3
Format/Info                 : Enhanced AC-3
Commercial name             : Dolby Digital Plus
Codec ID                    : A_EAC3
Duration                    : 1 h 41 min
Bit rate mode               : Constant
Bit rate                    : 640 kb/s
Channel(s)                  : 6 channels
Channel layout              : L R C LFE Ls Rs
Sampling rate               : 48.0 kHz
Frame rate                  : 31.250 FPS (1536 SPF)
Compression mode            : Lossy
Stream size                 : 464 MiB (4%)
Language                    : English
Service kind                : Complete Main
Default                     : No
Forced                      : No
Text #1
ID                          : 4
Format                      : UTF-8
Codec ID                    : S_TEXT/UTF8
Codec ID/Info               : UTF-8 Plain Text
Duration                    : 1 h 14 min
Bit rate                    : 1 b/s
Count of elements           : 22
Stream size                 : 649 Bytes (0%)
Title                       : Kiegészítő
Language                    : Hungarian
Default                     : Yes
Forced                      : Yes
Text #2
ID                          : 5
Format                      : UTF-8
Codec ID                    : S_TEXT/UTF8
Codec ID/Info               : UTF-8 Plain Text
Duration                    : 1 h 40 min
Bit rate                    : 58 b/s
Count of elements           : 1318
Stream size                 : 43.3 KiB (0%)
Title                       : Teljes
Language                    : Hungarian
Default                     : No
Forced                      : No

Sample & letöltés
 

Spoiler

Hidden Content

    Give reaction or reply to this topic to see the hidden content.

Hidden Content

    Give reaction or reply to this topic to see the hidden content.

Hidden Content

    Give reaction or reply to this topic to see the hidden content.

Hidden Content

    Give reaction or reply to this topic to see the hidden content.

Hidden Content

    Give reaction or reply to this topic to see the hidden content.

Hidden Content

    Give reaction or reply to this topic to see the hidden content.

Hidden Content

    Give reaction or reply to this topic to see the hidden content.

Hidden Content

    Give reaction or reply to this topic to see the hidden content.

Hidden Content

    Give reaction or reply to this topic to see the hidden content.

Hidden Content

    Give reaction or reply to this topic to see the hidden content.

Hidden Content

    Give reaction or reply to this topic to see the hidden content.

Hidden Content

    Give reaction or reply to this topic to see the hidden content.

Hidden Content

    Give reaction or reply to this topic to see the hidden content.

Hidden Content

    Give reaction or reply to this topic to see the hidden content.

 

 

  • Thanks 4

Share this post


Link to post
Share on other sites
Sign in to follow this  

  • Recently Browsing   0 members

    No registered users viewing this page.

×