Jump to content
PirateClub.hu
Sign in to follow this  
BOKROSLALA

Logan - Farkas/2017/HDR10-2160p Hundub Engdub Hunsub

Recommended Posts

Logan - Farkas/2017/HDR10-2160p Hundub Engdub Hunsub 
Amerikai szinkronizált akciófilm, 137 perc, 2017

Eredeti HDR10-Blue Ray rip!!!!
cd7fba3d226adaa651cbe16f609e4e83.jpg

Történet
2029-et járunk, a mutánsok szétszéledtek. A megfáradt, magányos Logan a mexikói határ szélén, egy porfészekben bujkál, alkoholba fojtva bánatát. Társa a száműzetésben a csavargó Caliban, és a beteg X professzor, akinek elméjét súlyos rohamok gyötrik. Egyik nap egy titokzatos nő keresi fel Farkast. Egy különös kislánnyal érkezett, akit Logannek kellene biztonságba juttatnia. És a sokat próbált harcos elindul, hogy egy utolsó, életre-halálra szóló küldetés során beteljesítse sorsát.
 
Stáblista:
Szereplők
Hugh Jackman 
Logan / Wolverine
Dafne Keen 
Laura Kinney / X-23
Patrick Stewart 
Charles Xavier / Professor X
Boyd Holbrook
Donald Pierce
Richard E. Grant 
Dr. Zander Rice
Stephen Merchant
Caliban
Elizabeth Rodriguez 
Gabriela
Doris Morgado
Maria
Eriq La Salle
Alkotók
Rendező:
James Mangold
 
Videoinformációk
 

Spoiler

General
Unique ID                   : Logan.mkv
Format                      : Matroska
Format version              : Version 4
File size                   : 22.8 GiB
Duration                    : 2 h 17 min
Overall bit rate mode       : Variable
Overall bit rate            : 23.7 Mb/s
Movie name                  : Logan
Cover                       : Yes
Attachments                 : cover.jpg
Video
ID                          : 1
Format                      : HEVC
Format/Info                 : High Efficiency Video Coding
Format profile              : Main 10@L5.1@High
HDR format                  : SMPTE ST 2086, HDR10 compatible
Duration                    : 2 h 17 min
Bit rate                    : 20.1 Mb/s
Width                       : 3 840 pixels
Height                      : 2 160 pixels
Display aspect ratio        : 16:9
Frame rate mode             : Constant
Frame rate                  : 23.976 (24000/1001) FPS
Color space                 : YUV
Chroma subsampling          : 4:2:0 (Type 2)
Bit depth                   : 10 bits
Bits/(Pixel*Frame)          : 0.101
Stream size                 : 19.3 GiB (85%)
Title                       : Logan
Language                    : English
Audio #1
ID                          : 2
Format                      : AC-3
Commercial name             : Dolby Digital
Duration                    : 2 h 17 min
Bit rate mode               : Constant
Bit rate                    : 448 kb/s
Channel(s)                  : 6 channels
Stream size                 : 440 MiB (2%)
Language                    : Hungarian
Service kind                : Complete Main
Default                     : Yes
Audio #2
ID                          : 3
Format                      : DTS XLL
Format/Info                 : Digital Theater Systems
Commercial name             : DTS-HD Master Audio
Duration                    : 2 h 17 min
Bit rate mode               : Variable
Bit rate                    : 3 194 kb/s
Channel(s)                  : 8 channels
Stream size                 : 3.06 GiB (13%)
Language                    : English
Default                     : No
Text
ID                          : 4
Format                      : UTF-8
Duration                    : 2 h 16 min
Language                    : Hungarian
Default                     : No

Sample & letöltés
 

Spoiler

Hidden Content

    Give reaction or reply to this topic to see the hidden content.


 

 

  • Like 3
  • Thanks 5

Share this post


Link to post
Share on other sites
Sign in to follow this  

  • Recently Browsing   0 members

    No registered users viewing this page.

×