Jump to content
PirateClub.hu
Sign in to follow this  
BOKROSLALA

Farkas/The Wolverine/2013-4K-2160p Hundub Engdub Hunsub

Recommended Posts

Farkas/The Wolverine/2013-4K-2160p Hundub Engdub Hunsub
Amerikai szinkronizált akciófilm, 138 perc, 2013
Saját konvertálás BR- Remux
72cdb86f02abbf8c7fe98ba0270842ab.jpg

Történet
A különlegesek közt ő a legkülönlegesebb. A győzhetetlenek között ő a legerősebb. Farkas (Hugh Jackman) vad, magányos, kortalan. Minden sebe azonnal gyógyul, a csontjait adamantiumötvözet teszi törhetetlenné. Ezúttal azonban - hosszú élete során először - mégis sebezhető.
Egy titokzatos férfi kérésére Logan Japánba utazik, ahol egy olyan ajánlatot kap, amelytől egész élete megváltozhat. Ám céljai eléréséhez le kell győznie a félelmetes Ezüst Szamurájt, egy csapat nindzsát és egy veszélyes tudóst is. Erején felül harcol, ám nemcsak a szamurájkardok fenyegetik: saját démonait, kétségeit és félelmét is le kell győznie ahhoz, hogy életben maradjon. Ha viszont győz, erősebb lesz, mint valaha volt.
 
Advertisement
Stáblista:
Szereplők
Hugh Jackman 
Logan / Farkas
Brian Tee
Noburo Mori
Will Yun Lee 
Kenuichio Harada / Silver Samurai
Hiroyuki Sanada 
Shingen Yashida
Svetlana Khodchenkova 
Viper
Rila Fukushima 
Yukio
Tao Okamoto
Mariko Yashida
Alkotók
Szinkronhang:
Sinkovits Vitay András
Moser Károly
Szatory Dávid
Forgács Péter
Götz Anna
Balsai Móni
Szávai Viktória
Rendező:
James Mangold
 
Videoinformációk
 

Spoiler

General
Unique ID                   : The Wolverine.mkv
Format                      : Matroska
Format version              : Version 4
File size                   : 22.4 GiB
Duration                    : 2 h 18 min
Overall bit rate            : 23.2 Mb/s
Movie name                  : The Wolverine
Cover                       : Yes
Attachments                 : cover.jpg
Video
ID                          : 1
Format                      : HEVC
Format/Info                 : High Efficiency Video Coding
Format profile              : Main 10@L5.1@High
HDR format                  : SMPTE ST 2086, HDR10 compatible
Codec ID                    : V_MPEGH/ISO/HEVC
Duration                    : 2 h 18 min
Bit rate                    : 21.3 Mb/s
Width                       : 3 840 pixels
Height                      : 2 160 pixels
Display aspect ratio        : 16:9
Frame rate mode             : Constant
Frame rate                  : 23.976 (24000/1001) FPS
Color space                 : YUV
Chroma subsampling          : 4:2:0 (Type 2)
Bit depth                   : 10 bits
Bits/(Pixel*Frame)          : 0.107
Stream size                 : 20.6 GiB (92%)
Language                    : English
Default                     : Yes
Audio #1
ID                          : 2
Format                      : AC-3
Commercial name             : Dolby Digital
Duration                    : 2 h 18 min
Bit rate                    : 448 kb/s
Channel(s)                  : 6 channels
Language                    : Hungarian
Service kind                : Complete Main
Default                     : Yes
Audio #2
ID                          : 3
Format                      : DTS ES
Format/Info                 : Digital Theater Systems
Commercial name             : DTS-ES Matrix
Duration                    : 2 h 18 min
Bit rate mode               : Constant
Bit rate                    : 1 509 kb/s
Channel(s)                  : 6 channels
Stream size                 : 1.46 GiB (6%)
Language                    : English
Default                     : No
Text #1
ID                          : 4
Format                      : UTF-8
Duration                    : 1 h 55 min
Language                    : Hungarian
Default                     : Yes
Forced                      : Yes
Text #2
ID                          : 5
Format                      : UTF-8
Duration                    : 2 h 16 min
Language                    : Hungarian
Default                     : No

Sample & letöltés
 

Spoiler

Hidden Content

    Give reaction or reply to this topic to see the hidden content.

Hidden Content

    Give reaction or reply to this topic to see the hidden content.

Hidden Content

    Give reaction or reply to this topic to see the hidden content.

Hidden Content

    Give reaction or reply to this topic to see the hidden content.

Hidden Content

    Give reaction or reply to this topic to see the hidden content.

Hidden Content

    Give reaction or reply to this topic to see the hidden content.

Hidden Content

    Give reaction or reply to this topic to see the hidden content.

Hidden Content

    Give reaction or reply to this topic to see the hidden content.

Hidden Content

    Give reaction or reply to this topic to see the hidden content.

Hidden Content

    Give reaction or reply to this topic to see the hidden content.

Hidden Content

    Give reaction or reply to this topic to see the hidden content.

Hidden Content

    Give reaction or reply to this topic to see the hidden content.

Hidden Content

    Give reaction or reply to this topic to see the hidden content.

 

  • Like 4
  • Thanks 6

Share this post


Link to post
Share on other sites
Sign in to follow this  

  • Recently Browsing   0 members

    No registered users viewing this page.

×