Jump to content
PirateClub.hu
Sign in to follow this  
BOKROSLALA

Paddington 2/2017/HDR4K-2160p Hundub

Recommended Posts

Paddington 2/2017/HDR4K-2160p Hundub
Angol-Francia szinkronizált családi animációs film, 103 perc, 2017
1ff355e9059b99a9a0e6f1f0229ea0ac.jpg

Történet
Mindenki kedvenc macija, a dédelgetnivaló Paddington boldogan éldegél a Brown családdal Windsor Gardensben, ahol az előző részben talált otthonra. Paddington csupa szív és vidámság, és amerre csak jár, marmeládot osztogat – így nem csoda, hogy roppant népszerű a helyiek körében. A kismackóra nagy feladat vár: közeleg imádott nagynénje, Lucy századik születésnapja, ezért méltó ajándékot kell kerítenie neki. Amikor Mr. Gruber régiségboltjában észrevesz egy különleges könyvet, azonnal tudja, hogy az az igazi. És mivel a könyv nincs ingyen, lelkes hősünk furábbnál furább munkákat vállal el, hogy megvehesse. Ám ekkor a nagybecsű művet ellopják, és Paddingtonra, no meg Brownékra vár, hogy leleplezzék a gaz tolvajt.
 
Stáblista:
Szereplők
Ben Whishaw 
Paddington 
Hugh Grant 
Phoenix Buchanan
Hugh Bonneville 
Henry Brown
Sally Hawkins 
Mary Brown
Samuel Joslin
Jonathan Brown
Madeleine Harris
Judy Brown
Brendan Gleeson 
'Bokszer' McGinty
Jim Broadbent 
Mr Gruber
Peter Capaldi 
Mr Curry
Julie Walters 
Mrs. Bird
Alkotók
Rendező:
Paul King
 
Videoinformációk
 

Spoiler

General
Unique ID                   : PADDINGTON 2.mkv
Format                      : Matroska
Format version              : Version 2
File size                   : 6.05 GiB
Duration                    : 1 h 43 min
Overall bit rate            : 8 391 kb/s
Movie name                  : PADDINGTON 2
Video
ID                          : 1
Format                      : HEVC
Format/Info                 : High Efficiency Video Coding
Format profile              : Main 10@L5.1@High
HDR format                  : SMPTE ST 2086, HDR10 compatible
Codec ID                    : V_MPEGH/ISO/HEVC
Duration                    : 1 h 43 min
Bit rate                    : 7 941 kb/s
Width                       : 3 840 pixels
Height                      : 1 608 pixels
Display aspect ratio        : 2.40:1
Frame rate mode             : Constant
Frame rate                  : 24.000 FPS
Color space                 : YUV
Chroma subsampling          : 4:2:0 (Type 2)
Bit depth                   : 10 bits
Bits/(Pixel*Frame)          : 0.054
Stream size                 : 5.73 GiB (95%)
Default                     : Yes
Audio
ID                          : 2
Format                      : AC-3
Commercial name             : Dolby Digital
Duration                    : 1 h 43 min
Bit rate mode               : Constant
Bit rate                    : 448 kb/s
Channel(s)                  : 6 channels
Channel layout              : L R C LFE Ls Rs
Sampling rate               : 48.0 kHz
Frame rate                  : 31.250 FPS (1536 SPF)
Compression mode            : Lossy
Stream size                 : 331 MiB (5%)
Language                    : Hungarian
Service kind                : Complete Main
Default                     : Yes
 

Sample & letöltés
 

Spoiler


Hidden Content

    Give reaction or reply to this topic to see the hidden content.

Hidden Content

    Give reaction or reply to this topic to see the hidden content.

Hidden Content

    Give reaction or reply to this topic to see the hidden content.

Hidden Content

    Give reaction or reply to this topic to see the hidden content.

Hidden Content

    Give reaction or reply to this topic to see the hidden content.

Hidden Content

    Give reaction or reply to this topic to see the hidden content.

Hidden Content

    Give reaction or reply to this topic to see the hidden content.

Hidden Content

    Give reaction or reply to this topic to see the hidden content.

 

 

  • Like 2
  • Thanks 4

Share this post


Link to post
Share on other sites
Sign in to follow this  

  • Recently Browsing   0 members

    No registered users viewing this page.

×