Jump to content
PirateClub.hu
Sign in to follow this  
ninoel

Szélsőség (Polar) 2019.1080p.10bit.WEBRip.6CH.x265.HunSub

Recommended Posts

Szélsőség (Polar) 2019.1080p.10bit.WEBRip.6CH.x265.HunSub
magyar feliratos, német-amerikai krimi-dráma, akciófilm, 118 perc, 2.4 Gb

polar.jpg

1080p-10bit-3v.png

hevc_265_hu_2.jpg

Egy visszavonulni vágyó bérgyilkosnak még várnia kell a nyugodt élettel, mert kapzsi főnöke egy csapat fiatal és könyörtelen gyilkost küld a nyomába.

RENDEZŐ: Jonas Åkerlund
ÍRÓ: Víctor Santos
FORGATÓKÖNYVÍRÓ: Jayson Rothwell
ZENE: Deadmau5
SZEREPLŐK: Mads Mikkelsen, Richard Dreyfuss, Vanessa Hudgens, Katheryn Winnick, Johnny Knoxville, Matt Lucas, Robert Maillet

Spoiler

 

Video
ID                          : 1
Format                      : HEVC
Format/Info                 : High Efficiency Video Coding
Format profile              : Main 10@L4@Main
Codec ID                    : V_MPEGH/ISO/HEVC
Duration                    : 1 h 58 min
Bit rate                    : 2 527 kb/s
Width                       : 1 920 pixels
Height                      : 960 pixels
Display aspect ratio        : 2.000
Frame rate mode             : Constant
Frame rate                  : 23.976 (24000/1001) FPS
Color space                 : YUV
Chroma subsampling          : 4:2:0
Bit depth                   : 10 bits
Bits/(Pixel*Frame)          : 0.057
Stream size                 : 2.10 GiB (93%)
Default                     : Yes
Forced                      : No

Audio
ID                          : 2
Format                      : AAC LC SBR
Format/Info                 : Advanced Audio Codec Low Complexity with Spectral Band Replication
Commercial name             : HE-AAC
Format settings             : Explicit
Codec ID                    : A_AAC-2
Duration                    : 1 h 58 min
Bit rate                    : 202 kb/s
Channel(s)                  : 6 channels
Channel layout              : C L R Ls Rs LFE
Sampling rate               : 48.0 kHz
Frame rate                  : 23.438 FPS (2048 SPF)
Compression mode            : Lossy
Delay relative to video     : 23 ms
Stream size                 : 171 MiB (7%)
Language                    : English
Default                     : Yes
Forced                      : No

Text
ID                          : 3
Format                      : UTF-8
Codec ID                    : S_TEXT/UTF8
Codec ID/Info               : UTF-8 Plain Text
Duration                    : 1 h 51 min
Bit rate                    : 36 b/s
Count of elements           : 1138
Stream size                 : 30.1 KiB (0%)
Language                    : Hungarian
Default                     : Yes
Forced                      : No

 

Hidden Content

    Give reaction or reply to this topic to see the hidden content.

 

  • Thanks 6

Share this post


Link to post
Share on other sites
Sign in to follow this  

  • Recently Browsing   0 members

    No registered users viewing this page.

×