Jump to content
PirateClub.hu
Sign in to follow this  
ninoel

Pieces of a Woman.2020.1080p.10bit.WEBRip.6CH.x265.HunSub

Recommended Posts

Pieces of a Woman.2020.1080p.10bit.WEBRip.6CH.x265.HunSub
magyar feliratos, kanadai-magyar-amerikai filmdráma, 126 perc, 1.7 Gb

princes-woman.jpg

1080p-10bit-3v.png

hevc_265_hu_2.jpg

Egy tragikusan végződő otthonszülés után egy nő érzelmi válságba kerül, és gyászában teljesen elszigetelődik a férjétől és a családjától.

RENDEZŐ: Mundruczó Kornél
ÍRÓ: Wéber Kata
ZENE: Howard Shore
SZEREPLŐK: Shia LaBeouf, Ellen Burstyn, Vanessa Kirby, Sarah Snook, Molly Parker, Jimmie Fails, Iliza Shlesinger, Benny Safdie

Spoiler

 

Video
ID                          : 1
Format                      : HEVC
Format/Info                 : High Efficiency Video Coding
Format profile              : Main 10@L4@Main
Codec ID                    : V_MPEGH/ISO/HEVC
Duration                    : 2 h 7 min
Bit rate                    : 1 600 kb/s
Width                       : 1 920 pixels
Height                      : 1 040 pixels
Display aspect ratio        : 1.85:1
Frame rate mode             : Constant
Frame rate                  : 24.000 FPS
Color space                 : YUV
Chroma subsampling          : 4:2:0
Bit depth                   : 10 bits
Bits/(Pixel*Frame)          : 0.033
Stream size                 : 1.43 GiB (89%)
Default                     : Yes
Forced                      : No

Audio
ID                          : 2
Format                      : AAC LC SBR
Format/Info                 : Advanced Audio Codec Low Complexity with Spectral Band Replication
Commercial name             : HE-AAC
Format settings             : Explicit
Codec ID                    : A_AAC-2
Duration                    : 2 h 7 min
Bit rate                    : 192 kb/s
Channel(s)                  : 6 channels
Channel layout              : C L R Ls Rs LFE
Sampling rate               : 48.0 kHz
Frame rate                  : 23.438 FPS (2048 SPF)
Compression mode            : Lossy
Delay relative to video     : 23 ms
Stream size                 : 176 MiB (11%)
Language                    : English
Default                     : Yes
Forced                      : No

Text
ID                          : 3
Format                      : UTF-8
Codec ID                    : S_TEXT/UTF8
Codec ID/Info               : UTF-8 Plain Text
Duration                    : 2 h 6 min
Bit rate                    : 44 b/s
Count of elements           : 1390
Stream size                 : 40.8 KiB (0%)
Title                       : Hungarian
Language                    : Hungarian
Default                     : Yes
Forced                      : No

 

Hidden Content

    Give reaction or reply to this topic to see the hidden content.

 

Share this post


Link to post
Share on other sites
Sign in to follow this  

  • Recently Browsing   0 members

    No registered users viewing this page.

×