Jump to content
PirateClub.hu
Sign in to follow this  
ninoel

Átkozottul veszett, sokkolóan gonosz és hitvány.2019.1080p.10bit.WEBRip.6CH.x265.Hun

Recommended Posts

Átkozottul veszett, sokkolóan gonosz és hitvány
Extremely Wicked Shockingly Evil and Vile.2019.1080p.10bit.WEBRip.6CH.x265
szinkronizált, amerikai krimi, thriller, életrajzi film, 109 perc, 1.7 Gb

extremely.jpg

1080p-10bit-3v.png

hevc_265_hu_2.jpg

1969. Ted (Zac Efron) őrjítően jóképű, okos, karizmatikus és gyengéd, az elővigyázatos, egyedülálló anya, Liz Kloepfer (Lily Collins) pedig képtelen ellenállni a férfi sármjának. Elképzelni sem tud ideálisabb pasit Tednél, és hamarosan fülig beleszeret. Ahogy telik az idő, úgy tűnik, a pár mesébe illően boldog életet él, de aztán ennek hirtelen vége szakad. Tedet letartóztatják, és könyörtelen gyilkosságokkal vádolják meg. Liz eleinte csak aggodalommal szemléli a történteket, aztán egyre jobban hatalmába keríti a paranoia, a bizonyítékok fényében pedig kénytelen lesz szembenézni a lehetőséggel, hogy álmai férfija valójában pszichopata.
Az Átkozottul veszett, sokkolóan gonosz és hitvány Ted Bundy, a történelem egyik leghírhedtebb sorozatgyilkosának történetét meséli el.

RENDEZŐ: Joe Berlinger
ÍRÓ: Michael Werwie
FORGATÓKÖNYVÍRÓ: Elizabeth Kloepfer
ZENE: Marco Beltrami, Dennis Smith
SZEREPLŐK: John Malkovich, Zac Efron, Jim Parsons, Lily Collins, Haley Joel Osment, Kaya Scodelario, Grace Victoria Cox

Spoiler

 

Video
ID                          : 1
Format                      : HEVC
Format/Info                 : High Efficiency Video Coding
Format profile              : Main 10@L4@Main
Codec ID                    : V_MPEGH/ISO/HEVC
Duration                    : 1 h 49 min
Bit rate                    : 1 851 kb/s
Width                       : 1 920 pixels
Height                      : 808 pixels
Display aspect ratio        : 2.40:1
Frame rate mode             : Constant
Frame rate                  : 23.976 (24000/1001) FPS
Color space                 : YUV
Chroma subsampling          : 4:2:0
Bit depth                   : 10 bits
Bits/(Pixel*Frame)          : 0.050
Stream size                 : 1.42 GiB (92%)
Default                     : Yes
Forced                      : No

Audio
ID                          : 2
Format                      : AAC LC SBR
Format/Info                 : Advanced Audio Codec Low Complexity with Spectral Band Replication
Commercial name             : HE-AAC
Format settings             : Explicit
Codec ID                    : A_AAC-2
Duration                    : 1 h 49 min
Bit rate                    : 159 kb/s
Channel(s)                  : 6 channels
Channel layout              : C L R Ls Rs LFE
Sampling rate               : 48.0 kHz
Frame rate                  : 23.438 FPS (2048 SPF)
Compression mode            : Lossy
Stream size                 : 125 MiB (8%)
Language                    : Hungarian
Default                     : Yes
Forced                      : No

Text
ID                          : 3
Format                      : UTF-8
Codec ID                    : S_TEXT/UTF8
Codec ID/Info               : UTF-8 Plain Text
Duration                    : 34 s 827 ms
Bit rate                    : 113 b/s
Count of elements           : 9
Stream size                 : 495 Bytes (0%)
Language                    : Hungarian
Default                     : Yes
Forced                      : Yes

 

Hidden Content

    Give reaction or reply to this topic to see the hidden content.

 

  • Thanks 4

Share this post


Link to post
Share on other sites
Sign in to follow this  

  • Recently Browsing   0 members

    No registered users viewing this page.

×