Jump to content
PirateClub.hu
Sign in to follow this  
ninoel

Balkanskiy rubezh (The Balkan Line) 2019.1080p.10bit.BluRay.x265.5.1.Rus.HunSub

Recommended Posts

Balkanskiy rubezh (The Balkan Line) 2019.1080p.10bit.BluRay.x265.5.1.Rus.HunSub
magyar feliratos, orosz, szerb filmdráma, 147 perc, 2.2 Gb

balkan.jpg

1080p-10bit-3v.png

hevc_265_hu_2.jpg

Miután 1999-ben a NATO bombázta Jugoszláviát, a jugoszláv hadsereg kivonul Koszovó térségéből, a szerb népet az albán UCK terroristák kegyelmére hagyva.

Egy kis katonacsoportnak át kell vennie a Slatina repülőteret, és addig kell tartani, amíg az orosz békefenntartók megérkeznek.

Rendező: Andrey Volgin
Író: Andrey Anaykin, Ivan Naumov
Szereplők: Anton Pampushnyy, Milena Radulovic, Yuriy Kutsenko

Spoiler

 

Video
ID                          : 1
Format                      : HEVC
Format/Info                 : High Efficiency Video Coding
Format profile              : Main 10@L5.1@High
Codec ID                    : V_MPEGH/ISO/HEVC
Duration                    : 2 h 31 min
Bit rate                    : 1 784 kb/s
Width                       : 1 920 pixels
Height                      : 800 pixels
Display aspect ratio        : 2.40:1
Frame rate mode             : Constant
Frame rate                  : 23.976 (24000/1001) FPS
Color space                 : YUV
Chroma subsampling          : 4:2:0
Bit depth                   : 10 bits
Bits/(Pixel*Frame)          : 0.048
Stream size                 : 1.89 GiB (90%)
Default                     : Yes
Forced                      : No
Color range                 : Limited
Color primaries             : BT.709
Transfer characteristics    : BT.709
Matrix coefficients         : BT.709

Audio
ID                          : 2
Format                      : AAC LC SBR
Format/Info                 : Advanced Audio Codec Low Complexity with Spectral Band Replication
Commercial name             : HE-AAC
Format settings             : Explicit
Codec ID                    : A_AAC-2
Duration                    : 2 h 31 min
Bit rate                    : 192 kb/s
Channel(s)                  : 6 channels
Channel layout              : C L R Ls Rs LFE
Sampling rate               : 48.0 kHz
Frame rate                  : 23.438 FPS (2048 SPF)
Compression mode            : Lossy
Delay relative to video     : 40 ms
Stream size                 : 210 MiB (10%)
Language                    : Russian
Default                     : No
Forced                      : No

Text
ID                          : 3
Format                      : UTF-8
Codec ID                    : S_TEXT/UTF8
Codec ID/Info               : UTF-8 Plain Text
Duration                    : 2 h 27 min
Bit rate                    : 41 b/s
Count of elements           : 1011
Stream size                 : 44.4 KiB (0%)
Language                    : Hungarian
Default                     : Yes
Forced                      : No

 

Spoiler

Hidden Content

    Give reaction or reply to this topic to see the hidden content.

 

 

  • Like 3
  • Thanks 5

Share this post


Link to post
Share on other sites
Sign in to follow this  

  • Recently Browsing   0 members

    No registered users viewing this page.

×