Jump to content
Sign in to follow this  
BOKROSLALA

Underworld - Vérözön/Underworld: Blood Wars/HDR-2161p Hundub Engdub Hunsub

Recommended Posts

Underworld - Vérözön/Underworld: Blood Wars/HDR-2161p Hundub Engdub Hunsub
Amerikai szinkronizált akció-horror, 91 perc, 2016
1be8f4b5e604aa2a5f21cb46bf891973.jpg

Történet
A vámpírok és vérfarkasok háborúja talán sosem ér véget. De hozhat még néhány váratlan fordulatot. Selene (Kate Beckinsale) egyszerre próbálja túlélni a lycan klánok brutális támadásait és az őt eláruló vámpírok ostromát.
Kevesen állnak az ő oldalán, de azt a néhány férfit most arról próbálja meggyőzni, hogy békét kell teremteniük - még akkor is, ha nem értenek semmi máshoz, mint a háborúhoz, és akkor is, ha az csak egy módon születhet meg: a végső, legnagyobb áldozat kell hozzá.
 
Stáblista:
Szereplők
Kate Beckinsale 
Selene
Theo James 
David
Tobias Menzies
Marius
Charles Dance 
Thomas
Daisy Head
Alexia
Bradley James
Alicia Vela-Bailey
Lara Pulver 
Semira
Alkotók
Rendező:
Anna Foerster
 
Videoinformációk
 

Spoiler

General
Unerworld Blood Wars.mkv
Format                      : Matroska
Format version              : Version 4
File size                   : 11.4 GiB
Duration                    : 1 h 31 min
Overall bit rate mode       : Variable
Overall bit rate            : 17.9 Mb/s
Movie name                  : Unerworld Blood Wars
Cover                       : Yes
Attachments                 : cover.jpg
Video
ID                          : 1
Format                      : HEVC
Format/Info                 : High Efficiency Video Coding
Format profile              : Main 10@L5.1@High
HDR format                  : SMPTE ST 2086, HDR10 compatible
Codec ID                    : V_MPEGH/ISO/HEVC
Duration                    : 1 h 31 min
Bit rate                    : 12.1 Mb/s
Width                       : 3 840 pixels
Height                      : 1 600 pixels
Display aspect ratio        : 2.40:1
Frame rate mode             : Constant
Frame rate                  : 23.976 (24000/1001) FPS
Color space                 : YUV
Chroma subsampling          : 4:2:0 (Type 2)
Bit depth                   : 10 bits
Bits/(Pixel*Frame)          : 0.082
Stream size                 : 7.73 GiB (68%)
Language                    : English
Default                     : Yes
Forced                      : No
Color range                 : Limited
Color primaries             : BT.2020
Audio #1
ID                          : 2
Format                      : AC-3
Format/Info                 : Audio Coding 3
Commercial name             : Dolby Digital
Codec ID                    : A_AC3
Duration                    : 1 h 31 min
Bit rate mode               : Constant
Bit rate                    : 640 kb/s
Channel(s)                  : 6 channels
Channel layout              : L R C LFE Ls Rs
Sampling rate               : 48.0 kHz
Frame rate                  : 31.250 FPS (1536 SPF)
Compression mode            : Lossy
Stream size                 : 419 MiB (4%)
Language                    : Hungarian
Service kind                : Complete Main
Default                     : Yes
Forced                      : No
Audio #2
ID                          : 3
Format                      : MLP FBA 16-ch
Format/Info                 : Meridian Lossless Packing FBA with 16-channel presentation
Commercial name             : Dolby TrueHD with Dolby Atmos
Codec ID                    : A_TRUEHD
Duration                    : 1 h 31 min
Bit rate mode               : Variable
Bit rate                    : 5 076 kb/s
Maximum bit rate            : 8 112 kb/s
Channel(s)                  : 8 channels
Channel layout              : L R C LFE Ls Rs Lb Rb
Sampling rate               : 48.0 kHz
Frame rate                  : 1 200.000 FPS (40 SPF)
Compression mode            : Lossless
Delay relative to video     : 8 ms
Stream size                 : 3.25 GiB (28%)
Title                       : English TrueHD Atmos 7.1
Language                    : English
Default                     : No
Forced                      : No
Number of dynamic objects   : 11
Bed channel count           : 1 channel
Bed channel configuration   : LFE
Text #1
ID                          : 4
Format                      : UTF-8
Codec ID                    : S_TEXT/UTF8
Codec ID/Info               : UTF-8 Plain Text
Duration                    : 1 h 30 min
Bit rate                    : 41 b/s
Count of elements           : 819
Stream size                 : 27.2 KiB (0%)
Language                    : Hungarian
Default                     : No
Forced                      : No
Text #2
ID                          : 5
Format                      : PGS
Muxing mode                 : zlib
Codec ID                    : S_HDMV/PGS
Codec ID/Info               : Picture based subtitle format used on BDs/HD-DVDs
Duration                    : 1 h 30 min
Bit rate                    : 23.1 kb/s
Count of elements           : 1638
Stream size                 : 15.0 MiB (0%)
Language                    : Hungarian
Default                     : No
Forced                      : No

Sample & letöltés
 

Spoiler

Hidden Content

    Give reaction or reply to this topic to see the hidden content.

Hidden Content

    Give reaction or reply to this topic to see the hidden content.

Hidden Content

    Give reaction or reply to this topic to see the hidden content.

Hidden Content

    Give reaction or reply to this topic to see the hidden content.

Hidden Content

    Give reaction or reply to this topic to see the hidden content.

Hidden Content

    Give reaction or reply to this topic to see the hidden content.

Hidden Content

    Give reaction or reply to this topic to see the hidden content.

 

  • Like 1
  • Thanks 6

Share this post


Link to post
Share on other sites
Sign in to follow this  

  • Recently Browsing   0 members

    No registered users viewing this page.

×