Jump to content
PirateClub.hu
Sign in to follow this  
ninoel

A chicagói 7-ek tárgyalása (The.Trial.of.the.Chicago.7).2020.1080p.10bit.WEBRip.6CH.x265.HunSub

Recommended Posts

A chicagói 7-ek tárgyalása (The.Trial.of.the.Chicago.7).2020.1080p.10bit.WEBRip.6CH.x265.HunSub
magyar feliratos, amerikai filmdráma, 130 perc, 1.7 Gb

ttt-chicago7.jpg

1080p-10bit-3v.png

hevc_265_hu_2.jpg

Ami békés tüntetésnek indult, erőszakos rendőrségi összecsapásba torkollott. Ami utána következett, azt a történelem egyik leghírhedtebb pereként tartják számon.

RENDEZŐ: Aaron Sorkin
FORGATÓKÖNYVÍRÓ: Aaron Sorkin
ZENE: Daniel Pemberton
SZEREPLŐK: Joseph Gordon-Levitt, Eddie Redmayne, Michael Keaton, Sacha Baron Cohen, Frank Langella, Mark Rylance

Spoiler

 

Video
ID                          : 1
Format                      : HEVC
Format/Info                 : High Efficiency Video Coding
Format profile              : Main 10@L4@Main
Codec ID                    : V_MPEGH/ISO/HEVC
Duration                    : 2 h 10 min
Bit rate                    : 1 615 kb/s
Width                       : 1 920 pixels
Height                      : 808 pixels
Display aspect ratio        : 2.40:1
Frame rate mode             : Constant
Frame rate                  : 24.000 FPS
Color space                 : YUV
Chroma subsampling          : 4:2:0
Bit depth                   : 10 bits
Bits/(Pixel*Frame)          : 0.043
Stream size                 : 1.47 GiB (89%)
Default                     : Yes
Forced                      : No

Audio
ID                          : 2
Format                      : AAC LC SBR
Format/Info                 : Advanced Audio Codec Low Complexity with Spectral Band Replication
Commercial name             : HE-AAC
Format settings             : Explicit
Codec ID                    : A_AAC-2
Duration                    : 2 h 10 min
Bit rate                    : 192 kb/s
Channel(s)                  : 6 channels
Channel layout              : C L R Ls Rs LFE
Sampling rate               : 48.0 kHz
Frame rate                  : 23.438 FPS (2048 SPF)
Compression mode            : Lossy
Delay relative to video     : 23 ms
Stream size                 : 181 MiB (11%)
Language                    : English
Default                     : Yes
Forced                      : No

Text
ID                          : 3
Format                      : UTF-8
Codec ID                    : S_TEXT/UTF8
Codec ID/Info               : UTF-8 Plain Text
Duration                    : 2 h 8 min
Bit rate                    : 80 b/s
Count of elements           : 2043
Stream size                 : 75.1 KiB (0%)
Title                       : Hungarian
Language                    : Hungarian
Default                     : Yes
Forced                      : No

 

Spoiler

Hidden Content

    Give reaction or reply to this topic to see the hidden content.

 

 

  • Like 5
  • Thanks 9
  • Upvote 1

Share this post


Link to post
Share on other sites
Sign in to follow this  

  • Recently Browsing   0 members

    No registered users viewing this page.

×